  0
SECTION
  2
HEADER
  9
$ACADVER
  1
AC1015
  9
$ACADMAINTVER
 70
     0
  9
$DWGCODEPAGE
  3
ANSI_932
  9
$INSBASE
 10
0.0
 20
0.0
 30
0.0
  9
$EXTMIN
 10
-200.0
 20
-280.0
  9
$EXTMAX
 10
545.0
 20
115.5
  9
$LIMMIN
 10
-200.0
 20
-280.0
  9
$LIMMAX
 10
545.0
 20
115.5
  9
$ORTHOMODE
 70
     0
  9
$REGENMODE
 70
     1
  9
$FILLMODE
 70
     1
  9
$QTEXTMODE
 70
     0
  9
$MIRRTEXT
 70
     1
  9
$LTSCALE
 40
1.0
  9
$OSMODE
 70
     0
  9
$ATTMODE
 70
     1
  9
$TEXTSIZE
 40
3.0
  9
$TRACEWID
 40
0.5
  9
$TEXTSTYLE
  7
STANDARD
  9
$CLAYER
  8
0
  9
$CELTYPE
  6
BYLAYER
  9
$CECOLOR
 62
   256
  9
$CELTSCALE
 40
1.0
  9
$DISPSILH
 70
     0
  9
$DIMSCALE
 40
1.0
  9
$DIMASZ
 40
3.0
  9
$DIMEXO
 40
1.0
  9
$DIMDLI
 40
5.0
  9
$DIMRND
 40
0.0
  9
$DIMDLE
 40
5.0
  9
$DIMEXE
 40
2.0
  9
$DIMTP
 40
0.0
  9
$DIMTM
 40
0.0
  9
$DIMTXT
 40
3.0
  9
$DIMCEN
 40
2.0
  9
$DIMTSZ
 40
0.0
  9
$DIMTOL
 70
     0
  9
$DIMLIM
 70
     0
  9
$DIMTIH
 70
     0
  9
$DIMTOH
 70
     0
  9
$DIMSE1
 70
     0
  9
$DIMSE2
 70
     0
  9
$DIMTAD
 70
     1
  9
$DIMZIN
 70
     8
  9
$DIMBLK
  1

  9
$DIMASO
 70
     1
  9
$DIMSHO
 70
     1
  9
$DIMPOST
  1

  9
$DIMAPOST
  1

  9
$DIMALT
 70
     0
  9
$DIMALTD
 70
     4
  9
$DIMALTF
 40
25.4
  9
$DIMLFAC
 40
1.0
  9
$DIMTOFL
 70
     1
  9
$DIMTVP
 40
1.0
  9
$DIMTIX
 70
     0
  9
$DIMSOXD
 70
     0
  9
$DIMSAH
 70
     0
  9
$DIMBLK1
  1

  9
$DIMBLK2
  1

  9
$DIMSTYLE
  2
ISO-25
  9
$DIMCLRD
 70
     0
  9
$DIMCLRE
 70
     0
  9
$DIMCLRT
 70
     0
  9
$DIMTFAC
 40
1.0
  9
$DIMGAP
 40
0.5
  9
$DIMJUST
 70
     0
  9
$DIMSD1
 70
     0
  9
$DIMSD2
 70
     0
  9
$DIMTOLJ
 70
     1
  9
$DIMTZIN
 70
     1
  9
$DIMALTZ
 70
     0
  9
$DIMALTTZ
 70
     0
  9
$DIMUPT
 70
     0
  9
$DIMDEC
 70
     3
  9
$DIMTDEC
 70
     3
  9
$DIMALTU
 70
     8
  9
$DIMALTTD
 70
     4
  9
$DIMTXSTY
  7
STANDARD
  9
$DIMAUNIT
 70
     0
  9
$DIMADEC
 70
     0
  9
$DIMALTRND
 40
0.0
  9
$DIMAZIN
 70
     0
  9
$DIMDSEP
 70
    46
  9
$DIMATFIT
 70
     3
  9
$DIMFRAC
 70
     0
  9
$DIMLDRBLK
  1

  9
$DIMLUNIT
 70
     2
  9
$DIMLWD
 70
    -2
  9
$DIMLWE
 70
    -2
  9
$DIMTMOVE
 70
     0
  9
$LUNITS
 70
     2
  9
$LUPREC
 70
     4
  9
$SKETCHINC
 40
1.0
  9
$FILLETRAD
 40
0.0
  9
$AUNITS
 70
     0
  9
$AUPREC
 70
     0
  9
$MENU
  1
.
  9
$ELEVATION
 40
0.0
  9
$PELEVATION
 40
0.0
  9
$THICKNESS
 40
0.0
  9
$LIMCHECK
 70
     0
  9
$CHAMFERA
 40
0.0
  9
$CHAMFERB
 40
0.0
  9
$CHAMFERC
 40
0.0
  9
$CHAMFERD
 40
0.0
  9
$SKPOLY
 70
     0
  9
$TDCREATE
 40
2456108.452974537
  9
$TDUCREATE
 40
2456108.452974537
  9
$TDUPDATE
 40
2456108.452974537
  9
$TDUUPDATE
 40
2456108.452974537
  9
$TDINDWG
 40
0.0
  9
$TDUSRTIMER
 40
0.0
  9
$USRTIMER
 70
     1
  9
$ANGBASE
 50
0.0
  9
$ANGDIR
 70
     0
  9
$PDMODE
 70
     0
  9
$PDSIZE
 40
0.0
  9
$PLINEWID
 40
0.0
  9
$SPLFRAME
 70
     0
  9
$SPLINETYPE
 70
     6
  9
$SPLINESEGS
 70
     8
  9
$HANDSEED
  5
3CD
  9
$SURFTAB1
 70
     6
  9
$SURFTAB2
 70
     6
  9
$SURFTYPE
 70
     6
  9
$SURFU
 70
     6
  9
$SURFV
 70
     6
  9
$UCSBASE
  2

  9
$UCSNAME
  2

  9
$UCSORG
 10
0.0
 20
0.0
 30
0.0
  9
$UCSXDIR
 10
1.0
 20
0.0
 30
0.0
  9
$UCSYDIR
 10
0.0
 20
1.0
 30
0.0
  9
$UCSORTHOREF
  2

  9
$UCSORTHOVIEW
 70
     0
  9
$UCSORGTOP
 10
0.0
 20
0.0
 30
0.0
  9
$UCSORGBOTTOM
 10
0.0
 20
0.0
 30
0.0
  9
$UCSORGLEFT
 10
0.0
 20
0.0
 30
0.0
  9
$UCSORGRIGHT
 10
0.0
 20
0.0
 30
0.0
  9
$UCSORGFRONT
 10
0.0
 20
0.0
 30
0.0
  9
$UCSORGBACK
 10
0.0
 20
0.0
 30
0.0
  9
$PUCSBASE
  2

  9
$PUCSNAME
  2

  9
$PUCSORG
 10
0.0
 20
0.0
 30
0.0
  9
$PUCSXDIR
 10
1.0
 20
0.0
 30
0.0
  9
$PUCSYDIR
 10
0.0
 20
1.0
 30
0.0
  9
$PUCSORTHOREF
  2

  9
$PUCSORTHOVIEW
 70
     0
  9
$PUCSORGTOP
 10
0.0
 20
0.0
 30
0.0
  9
$PUCSORGBOTTOM
 10
0.0
 20
0.0
 30
0.0
  9
$PUCSORGLEFT
 10
0.0
 20
0.0
 30
0.0
  9
$PUCSORGRIGHT
 10
0.0
 20
0.0
 30
0.0
  9
$PUCSORGFRONT
 10
0.0
 20
0.0
 30
0.0
  9
$PUCSORGBACK
 10
0.0
 20
0.0
 30
0.0
  9
$USERI1
 70
     0
  9
$USERI2
 70
     0
  9
$USERI3
 70
     0
  9
$USERI4
 70
     0
  9
$USERI5
 70
     0
  9
$USERR1
 40
0.0
  9
$USERR2
 40
0.0
  9
$USERR3
 40
0.0
  9
$USERR4
 40
0.0
  9
$USERR5
 40
0.0
  9
$WORLDVIEW
 70
     1
  9
$SHADEDGE
 70
     3
  9
$SHADEDIF
 70
    70
  9
$MAXACTVP
 70
    16
  9
$PINSBASE
 10
0.0
 20
0.0
 30
0.0
  9
$PLIMCHECK
 70
     0
  9
$PEXTMIN
 10
1.000000000000000E+020
 20
1.000000000000000E+020
 30
1.000000000000000E+020
  9
$PEXTMAX
 10
-1.000000000000000E+020
 20
-1.000000000000000E+020
 30
-1.000000000000000E+020
  9
$PLIMMIN
 10
-200.0
 20
-280.0
  9
$PLIMMAX
 10
545.0
 20
115.5
  9
$UNITMODE
 70
     0
  9
$VISRETAIN
 70
     0
  9
$PLINEGEN
 70
     0
  9
$PSLTSCALE
 70
     0
  9
$TREEDEPTH
 70
  3020
  9
$CMLSTYLE
  2
STANDARD
  9
$CMLJUST
 70
     0
  9
$CMLSCALE
 40
1.0
  9
$PROXYGRAPHICS
 70
     1
  9
$MEASUREMENT
 70
     0
  9
$CELWEIGHT
370
    -3
  9
$ENDCAPS
280
     0
  9
$JOINSTYLE
280
     0
  9
$LWDISPLAY
290
     1
  9
$INSUNITS
 70
     0
  9
$HYPERLINKBASE
  1

  9
$STYLESHEET
  1

  9
$XEDIT
290
     1
  9
$CEPSNTYPE
380
     0
  9
$PSTYLEMODE
290
     1
  9
$FINGERPRINTGUID
  2
{6F25CFC2-5053-11D3-9BE9-00805F4AB38E}
  9
$VERSIONGUID
  2
{6F25CFC5-5053-11D3-9BE9-00805F4AB38E}
  9
$EXTNAMES
290
     1
  9
$PSVPSCALE
 40
0.0
  9
$OLESTARTUP
290
     0
  0
ENDSEC
  0
SECTION
  2
CLASSES
  0
CLASS
  1
LWPOLYLINE
  2
AcDbPolyline
  3
AutoCAD 2000
 90
    32768
280
     0
281
     1
  0
CLASS
  1
DICTIONARYVAR
  2
AcDbDictionaryVar
  3
AutoCAD 2000
 90
        0
280
     0
281
     1
  0
CLASS
  1
ACDBDICTIONARYWDFLT
  2
AcDbDictionaryWithDefault
  3
AutoCAD 2000
 90
        0
280
     0
281
     1
  0
CLASS
  1
ACDBPLACEHOLDER
  2
AcDbPlaceHolder
  3
AutoCAD 2000
 90
        0
280
     0
281
     1
  0
CLASS
  1
LAYOUT
  2
AcDbLayout
  3
AutoCAD 2000
 90
        0
280
     0
281
     1
  0
CLASS
  1
HATCH
  2
AcDbHatch
  3
AutoCAD 2000
 90
        0
280
     0
281
     1
  0
ENDSEC
  0
SECTION
  2
TABLES
  0
TABLE
  2
VPORT
  5
8
100
AcDbSymbolTable
 70
     1
  0
VPORT
  5
3C0
330
0
100
AcDbSymbolTableRecord
100
AcDbViewportTableRecord
  2
*ACTIVE
 70
     0
 10
0.0
 20
0.0
 11
1.0
 21
1.0
 12
172.5
 22
-82.25
 13
0.0
 23
0.0
 14
0.0
 24
0.0
 15
0.0
 25
0.0
 16
0.0
 26
0.0
 36
1.0
 17
0.0
 27
0.0
 37
0.0
 40
745.0
 41
1.5
 42
50.0
 43
0.0
 44
0.0
 50
0.0
 51
0.0
 71
     0
 72
   100
 73
     1
 74
     1
 75
     0
 76
     0
 77
     0
 78
     0
281
     0
 65
     1
110
0.0
120
0.0
130
0.0
111
1.0
121
0.0
131
0.0
112
0.0
122
1.0
132
0.0
 79
     0
146
0.0
  0
ENDTAB
  0
TABLE
  2
LTYPE
  5
5
330
0
100
AcDbSymbolTable
 70
    20
  0
LTYPE
  5
3C1
330
5
100
AcDbSymbolTableRecord
100
AcDbLinetypeTableRecord
  2
BYBLOCK
 70
     0
  3

 72
    65
 73
     0
 40
0.0
  0
LTYPE
  5
3C2
330
5
100
AcDbSymbolTableRecord
100
AcDbLinetypeTableRecord
  2
BYLAYER
 70
     0
  3

 72
    65
 73
     0
 40
0.0
  0
LTYPE
  5
3C3
330
5
100
AcDbSymbolTableRecord
100
AcDbLinetypeTableRecord
  2
CONTINUOUS
 70
    64
  3
solid line
 72
    65
 73
     0
 40
0.0
  0
LTYPE
  5
3C4
330
0
100
AcDbSymbolTableRecord
100
AcDbLinetypeTableRecord
  2
DASHED
 70
    64
  3
-- -- -- -- -- -- -- -- -- -- 
 72
    65
 73
     2
 40
6.0
 49
4.0
 74
     0
 49
-2.0
 74
     0
  0
LTYPE
  5
3C5
330
0
100
AcDbSymbolTableRecord
100
AcDbLinetypeTableRecord
  2
CENTER
 70
    64
  3
--- - --- - --- - --- - --- - 
 72
    65
 73
     4
 40
12.0
 49
6.0
 74
     0
 49
-2.0
 74
     0
 49
2.0
 74
     0
 49
-2.0
 74
     0
  0
ENDTAB
  0
TABLE
  2
LAYER
  5
2
330
0
100
AcDbSymbolTable
 70
    20
  0
LAYER
  5
3C6
330
2
100
AcDbSymbolTableRecord
100
AcDbLayerTableRecord
  2
0
 70
    64
 62
     7
  6
CONTINUOUS
370
    -3
390
3B7
  0
LAYER
  5
3C7
330
2
100
AcDbSymbolTableRecord
100
AcDbLayerTableRecord
  2
DEFPOINTS
 70
     0
 62
    -7
  6
CONTINUOUS
290
     0
370
    -3
390
3B7
  0
ENDTAB
  0
TABLE
  2
STYLE
  5
3
330
0
100
AcDbSymbolTable
 70
     4
  0
STYLE
  5
3C8
330
3
100
AcDbSymbolTableRecord
100
AcDbTextStyleTableRecord
  2
STANDARD
 70
    64
 40
0.0
 41
1.0
 50
0.0
 71
     0
 42
6.0
  3
txt
  4

  0
STYLE
  5
3C9
330
3
100
AcDbSymbolTableRecord
100
AcDbTextStyleTableRecord
  2
BIGFONT
 70
    64
 40
0.0
 41
1.0
 50
0.0
 71
     0
 42
6.0
  3
txt
  4
bigfont
  0
ENDTAB
  0
TABLE
  2
VIEW
  5
6
330
0
100
AcDbSymbolTable
 70
     0
  0
ENDTAB
  0
TABLE
  2
UCS
  5
7
330
0
100
AcDbSymbolTable
 70
     0
  0
ENDTAB
  0
TABLE
  2
APPID
  5
9
330
0
100
AcDbSymbolTable
 70
     1
  0
APPID
  5
3CA
330
9
100
AcDbSymbolTableRecord
100
AcDbRegAppTableRecord
  2
ACAD
 70
     0
  0
ENDTAB
  0
TABLE
  2
DIMSTYLE
  5
A
330
0
100
AcDbSymbolTable
 70
     8
100
AcDbDimStyleTable
 71
     0
  0
DIMSTYLE
105
3CB
330
A
100
AcDbSymbolTableRecord
100
AcDbDimStyleTableRecord
  2
ISO-25
 70
     0
  3

  4

  5

  6

  7

 40
1.0
 41
3.0
 42
1.0
 43
5.0
 44
2.0
 45
0.0
 46
5.0
 47
0.0
 48
0.0
140
3.0
141
2.0
142
0.0
143
25.4
144
1.0
145
1.0
146
1.0
147
0.5
 71
     0
 72
     0
 73
     0
 74
     0
 75
     0
 76
     0
 77
     1
 78
     8
170
     0
171
     0
172
     1
173
     0
174
     0
175
     0
176
     0
177
     0
178
     0
270
     2
271
     3
272
     3
273
     8
274
     4
340
3C8
275
     0
280
     0
281
     0
282
     0
283
     1
284
     1
285
     0
286
     0
287
     3
288
     0
  0
DIMSTYLE
105
3CC
330
A
100
AcDbSymbolTableRecord
100
AcDbDimStyleTableRecord
  2
ISO-25 0.5
 70
     0
  3

  4

  5

  6

  7

 40
1.0
 41
6.0
 42
2.0
 43
10.0
 44
4.0
 45
0.0
 46
10.0
 47
0.0
 48
0.0
140
6.0
141
4.0
142
0.0
143
25.4
144
1.0
145
1.0
146
1.0
147
1.0
 71
     0
 72
     0
 73
     0
 74
     0
 75
     0
 76
     0
 77
     1
 78
     8
170
     0
171
     0
172
     1
173
     0
174
     0
175
     0
176
     0
177
     0
178
     0
270
     2
271
     3
272
     3
273
     8
274
     4
340
3C8
275
     0
280
     0
281
     0
282
     0
283
     1
284
     1
285
     0
286
     0
287
     3
288
     0
  0
ENDTAB
  0
TABLE
  2
BLOCK_RECORD
  5
1
330
0
100
AcDbSymbolTable
 70
     2
  0
BLOCK_RECORD
  5
20
330
1
100
AcDbSymbolTableRecord
100
AcDbBlockTableRecord
  2
*MODEL_SPACE
340
3B8
  0
BLOCK_RECORD
  5
22
330
1
100
AcDbSymbolTableRecord
100
AcDbBlockTableRecord
  2
*PAPER_SPACE
340
0
  0
BLOCK_RECORD
  5
30D
330
1
100
AcDbSymbolTableRecord
100
AcDbBlockTableRecord
  2
MARK-1_1
340
0
102
{BLKREFS
331
30C
331
30F
331
318
331
31B
331
376
331
38E
331
3AC
102
}
  0
BLOCK_RECORD
  5
13F
330
1
100
AcDbSymbolTableRecord
100
AcDbBlockTableRecord
  2
*D1
340
0
102
{BLKREFS
331
150
102
}
  0
BLOCK_RECORD
  5
151
330
1
100
AcDbSymbolTableRecord
100
AcDbBlockTableRecord
  2
*D2
340
0
102
{BLKREFS
331
160
102
}
  0
BLOCK_RECORD
  5
161
330
1
100
AcDbSymbolTableRecord
100
AcDbBlockTableRecord
  2
*D3
340
0
102
{BLKREFS
331
170
102
}
  0
BLOCK_RECORD
  5
171
330
1
100
AcDbSymbolTableRecord
100
AcDbBlockTableRecord
  2
*D4
340
0
102
{BLKREFS
331
180
102
}
  0
BLOCK_RECORD
  5
181
330
1
100
AcDbSymbolTableRecord
100
AcDbBlockTableRecord
  2
*D5
340
0
102
{BLKREFS
331
191
102
}
  0
BLOCK_RECORD
  5
192
330
1
100
AcDbSymbolTableRecord
100
AcDbBlockTableRecord
  2
*D6
340
0
102
{BLKREFS
331
1A0
102
}
  0
BLOCK_RECORD
  5
1A1
330
1
100
AcDbSymbolTableRecord
100
AcDbBlockTableRecord
  2
*D7
340
0
102
{BLKREFS
331
1AF
102
}
  0
BLOCK_RECORD
  5
1B0
330
1
100
AcDbSymbolTableRecord
100
AcDbBlockTableRecord
  2
*D8
340
0
102
{BLKREFS
331
1BF
102
}
  0
BLOCK_RECORD
  5
1C0
330
1
100
AcDbSymbolTableRecord
100
AcDbBlockTableRecord
  2
*D9
340
0
102
{BLKREFS
331
1CF
102
}
  0
BLOCK_RECORD
  5
1D0
330
1
100
AcDbSymbolTableRecord
100
AcDbBlockTableRecord
  2
*D10
340
0
102
{BLKREFS
331
1DF
102
}
  0
BLOCK_RECORD
  5
1E0
330
1
100
AcDbSymbolTableRecord
100
AcDbBlockTableRecord
  2
*D11
340
0
102
{BLKREFS
331
1F2
102
}
  0
BLOCK_RECORD
  5
1F3
330
1
100
AcDbSymbolTableRecord
100
AcDbBlockTableRecord
  2
*D12
340
0
102
{BLKREFS
331
202
102
}
  0
BLOCK_RECORD
  5
203
330
1
100
AcDbSymbolTableRecord
100
AcDbBlockTableRecord
  2
*D13
340
0
102
{BLKREFS
331
214
102
}
  0
BLOCK_RECORD
  5
215
330
1
100
AcDbSymbolTableRecord
100
AcDbBlockTableRecord
  2
*D14
340
0
102
{BLKREFS
331
224
102
}
  0
BLOCK_RECORD
  5
225
330
1
100
AcDbSymbolTableRecord
100
AcDbBlockTableRecord
  2
*D15
340
0
102
{BLKREFS
331
234
102
}
  0
BLOCK_RECORD
  5
235
330
1
100
AcDbSymbolTableRecord
100
AcDbBlockTableRecord
  2
*D16
340
0
102
{BLKREFS
331
244
102
}
  0
BLOCK_RECORD
  5
245
330
1
100
AcDbSymbolTableRecord
100
AcDbBlockTableRecord
  2
*D17
340
0
102
{BLKREFS
331
254
102
}
  0
BLOCK_RECORD
  5
255
330
1
100
AcDbSymbolTableRecord
100
AcDbBlockTableRecord
  2
*D18
340
0
102
{BLKREFS
331
266
102
}
  0
BLOCK_RECORD
  5
267
330
1
100
AcDbSymbolTableRecord
100
AcDbBlockTableRecord
  2
*D19
340
0
102
{BLKREFS
331
278
102
}
  0
BLOCK_RECORD
  5
279
330
1
100
AcDbSymbolTableRecord
100
AcDbBlockTableRecord
  2
*D20
340
0
102
{BLKREFS
331
288
102
}
  0
BLOCK_RECORD
  5
289
330
1
100
AcDbSymbolTableRecord
100
AcDbBlockTableRecord
  2
*D21
340
0
102
{BLKREFS
331
298
102
}
  0
BLOCK_RECORD
  5
299
330
1
100
AcDbSymbolTableRecord
100
AcDbBlockTableRecord
  2
*D22
340
0
102
{BLKREFS
331
2A8
102
}
  0
BLOCK_RECORD
  5
2E7
330
1
100
AcDbSymbolTableRecord
100
AcDbBlockTableRecord
  2
*D23
340
0
102
{BLKREFS
331
2F2
102
}
  0
BLOCK_RECORD
  5
2F3
330
1
100
AcDbSymbolTableRecord
100
AcDbBlockTableRecord
  2
*D24
340
0
102
{BLKREFS
331
2FE
102
}
  0
BLOCK_RECORD
  5
2FF
330
1
100
AcDbSymbolTableRecord
100
AcDbBlockTableRecord
  2
*D25
340
0
102
{BLKREFS
331
30A
102
}
  0
BLOCK_RECORD
  5
31C
330
1
100
AcDbSymbolTableRecord
100
AcDbBlockTableRecord
  2
*D26
340
0
102
{BLKREFS
331
32D
102
}
  0
BLOCK_RECORD
  5
32E
330
1
100
AcDbSymbolTableRecord
100
AcDbBlockTableRecord
  2
*D27
340
0
102
{BLKREFS
331
33F
102
}
  0
BLOCK_RECORD
  5
340
330
1
100
AcDbSymbolTableRecord
100
AcDbBlockTableRecord
  2
*D28
340
0
102
{BLKREFS
331
352
102
}
  0
BLOCK_RECORD
  5
353
330
1
100
AcDbSymbolTableRecord
100
AcDbBlockTableRecord
  2
*D29
340
0
102
{BLKREFS
331
362
102
}
  0
BLOCK_RECORD
  5
363
330
1
100
AcDbSymbolTableRecord
100
AcDbBlockTableRecord
  2
*D30
340
0
102
{BLKREFS
331
374
102
}
  0
BLOCK_RECORD
  5
37F
330
1
100
AcDbSymbolTableRecord
100
AcDbBlockTableRecord
  2
*D31
340
0
102
{BLKREFS
331
38C
102
}
  0
BLOCK_RECORD
  5
398
330
1
100
AcDbSymbolTableRecord
100
AcDbBlockTableRecord
  2
*D32
340
0
102
{BLKREFS
331
3A9
102
}
  0
BLOCK_RECORD
  5
30E
330
1
100
AcDbSymbolTableRecord
100
AcDbBlockTableRecord
  2
LDR1
340
0
102
{BLKREFS
331
310
102
}
  0
BLOCK_RECORD
  5
375
330
1
100
AcDbSymbolTableRecord
100
AcDbBlockTableRecord
  2
LDR2
340
0
102
{BLKREFS
331
377
102
}
  0
BLOCK_RECORD
  5
38D
330
1
100
AcDbSymbolTableRecord
100
AcDbBlockTableRecord
  2
LDR3
340
0
102
{BLKREFS
331
38F
102
}
  0
ENDTAB
  0
ENDSEC
  0
SECTION
  2
BLOCKS
  0
BLOCK
  5
21
330
20
100
AcDbEntity
  8
0
100
AcDbBlockBegin
  2
*MODEL_SPACE
 70
     0
 10
0.0
 20
0.0
 30
0.0
  3
*MODEL_SPACE
  1

  0
ENDBLK
  5
3B9
330
20
100
AcDbEntity
  8
0
100
AcDbBlockEnd
  0
BLOCK
  5
23
330
22
100
AcDbEntity
 67
     1
  8
0
100
AcDbBlockBegin
  2
*PAPER_SPACE
 70
     0
 10
0.0
 20
0.0
 30
0.0
  3
*PAPER_SPACE
  1

  0
ENDBLK
  5
3BA
330
22
100
AcDbEntity
 67
     1
  8
0
100
AcDbBlockEnd
  0
BLOCK
  5
3BB
330
30D
100
AcDbEntity
  8
0
100
AcDbBlockBegin
  2
MARK-1_1
 70
    64
 10
0.0
 20
0.0
  0
LINE
  5
3BC
330
30D
100
AcDbEntity
  8
0
  6
CONTINUOUS
370
     0
 62
     0
100
AcDbLine
 10
-1.0
 20
-0.25
 11
0.0
 21
0.0
  0
LINE
  5
3BD
330
30D
100
AcDbEntity
  8
0
  6
CONTINUOUS
370
     0
 62
     0
100
AcDbLine
 10
0.0
 20
0.0
 11
-1.0
 21
0.25
  0
LINE
  5
3BE
330
30D
100
AcDbEntity
  8
0
  6
CONTINUOUS
370
     0
 62
     0
100
AcDbLine
 10
0.0
 20
0.0
 11
-1.0
 21
0.0
  0
ENDBLK
  5
3BF
330
30D
100
AcDbEntity
  8
0
100
AcDbBlockEnd
  0
BLOCK
  5
140
330
13F
100
AcDbEntity
  8
0
100
AcDbBlockBegin
  2
*D1
 70
    65
 10
0.0
 20
0.0
  0
LINE
  5
141
330
13F
100
AcDbEntity
  8
0
  6
CONTINUOUS
370
     0
 62
     1
100
AcDbLine
 10
130.0
 20
-153.5
 11
130.0
 21
-163.5
  0
LINE
  5
142
330
13F
100
AcDbEntity
  8
0
  6
CONTINUOUS
370
     0
 62
     1
100
AcDbLine
 10
128.5
 20
-159.5
 11
130.0
 21
-153.5
  0
LINE
  5
143
330
13F
100
AcDbEntity
  8
0
  6
CONTINUOUS
370
     0
 62
     1
100
AcDbLine
 10
130.0
 20
-153.5
 11
131.5
 21
-159.5
  0
LINE
  5
144
330
13F
100
AcDbEntity
  8
0
  6
CONTINUOUS
370
     0
 62
     1
100
AcDbLine
 10
130.0
 20
-153.5
 11
130.0
 21
-148.5
  0
LINE
  5
145
330
13F
100
AcDbEntity
  8
0
  6
CONTINUOUS
370
     0
 62
     1
100
AcDbLine
 10
130.0
 20
-143.5
 11
130.0
 21
-148.5
  0
LINE
  5
146
330
13F
100
AcDbEntity
  8
0
  6
CONTINUOUS
370
     0
 62
     1
100
AcDbLine
 10
130.0
 20
-143.5
 11
130.0
 21
-133.5
  0
LINE
  5
147
330
13F
100
AcDbEntity
  8
0
  6
CONTINUOUS
370
     0
 62
     1
100
AcDbLine
 10
131.5
 20
-137.5
 11
130.0
 21
-143.5
  0
LINE
  5
148
330
13F
100
AcDbEntity
  8
0
  6
CONTINUOUS
370
     0
 62
     1
100
AcDbLine
 10
130.0
 20
-143.5
 11
128.5
 21
-137.5
  0
LINE
  5
149
330
13F
100
AcDbEntity
  8
0
  6
CONTINUOUS
370
     0
 62
     1
100
AcDbLine
 10
108.0
 20
-153.5
 11
134.0
 21
-153.5
  0
LINE
  5
14A
330
13F
100
AcDbEntity
  8
0
  6
CONTINUOUS
370
     0
 62
     1
100
AcDbLine
 10
108.0
 20
-143.5
 11
134.0
 21
-143.5
  0
TEXT
  5
14B
330
13F
100
AcDbEntity
  8
0
  6
CONTINUOUS
370
     0
 62
     1
100
AcDbText
 10
129.0
 20
-152.0625
 30
0.0
 40
6.0
 41
0.7236842105263159
 50
90.0
 51
0.0
  7
STANDARD
 72
     0
  1
10
100
AcDbText
  0
POINT
  5
14C
330
13F
100
AcDbEntity
  8
DEFPOINTS
  6
BYBLOCK
 62
     0
100
AcDbPoint
 10
105.0
 20
-153.5
  0
POINT
  5
14D
100
AcDbEntity
  8
DEFPOINTS
  6
BYBLOCK
 62
     0
100
AcDbPoint
 10
105.0
 20
-143.5
  0
POINT
  5
14E
100
AcDbEntity
  8
DEFPOINTS
  6
BYBLOCK
 62
     0
100
AcDbPoint
 10
130.0
 20
-143.5
  0
ENDBLK
  5
14F
330
13F
100
AcDbEntity
  8
0
100
AcDbBlockEnd
  0
BLOCK
  5
152
330
151
100
AcDbEntity
  8
0
100
AcDbBlockBegin
  2
*D2
 70
    65
 10
0.0
 20
0.0
  0
LINE
  5
153
330
151
100
AcDbEntity
  8
0
  6
CONTINUOUS
370
     0
 62
     1
100
AcDbLine
 10
150.0
 20
-153.5
 11
150.0
 21
-136.0
  0
LINE
  5
154
330
151
100
AcDbEntity
  8
0
  6
CONTINUOUS
370
     0
 62
     1
100
AcDbLine
 10
151.5
 20
-147.5
 11
150.0
 21
-153.5
  0
LINE
  5
155
330
151
100
AcDbEntity
  8
0
  6
CONTINUOUS
370
     0
 62
     1
100
AcDbLine
 10
150.0
 20
-153.5
 11
148.5
 21
-147.5
  0
LINE
  5
156
330
151
100
AcDbEntity
  8
0
  6
CONTINUOUS
370
     0
 62
     1
100
AcDbLine
 10
150.0
 20
-118.5
 11
150.0
 21
-136.0
  0
LINE
  5
157
330
151
100
AcDbEntity
  8
0
  6
CONTINUOUS
370
     0
 62
     1
100
AcDbLine
 10
148.5
 20
-124.5
 11
150.0
 21
-118.5
  0
LINE
  5
158
330
151
100
AcDbEntity
  8
0
  6
CONTINUOUS
370
     0
 62
     1
100
AcDbLine
 10
150.0
 20
-118.5
 11
151.5
 21
-124.5
  0
LINE
  5
159
330
151
100
AcDbEntity
  8
0
  6
CONTINUOUS
370
     0
 62
     1
100
AcDbLine
 10
108.0
 20
-153.5
 11
154.0
 21
-153.5
  0
LINE
  5
15A
330
151
100
AcDbEntity
  8
0
  6
CONTINUOUS
370
     0
 62
     1
100
AcDbLine
 10
96.0
 20
-118.5
 11
154.0
 21
-118.5
  0
TEXT
  5
15B
330
151
100
AcDbEntity
  8
0
  6
CONTINUOUS
370
     0
 62
     1
100
AcDbText
 10
149.0
 20
-139.5625
 30
0.0
 40
6.0
 41
0.7236842105263159
 50
90.0
 51
0.0
  7
STANDARD
 72
     0
  1
35
100
AcDbText
  0
POINT
  5
15C
330
151
100
AcDbEntity
  8
DEFPOINTS
  6
BYBLOCK
 62
     0
100
AcDbPoint
 10
105.0
 20
-153.5
  0
POINT
  5
15D
100
AcDbEntity
  8
DEFPOINTS
  6
BYBLOCK
 62
     0
100
AcDbPoint
 10
93.0
 20
-118.5
  0
POINT
  5
15E
100
AcDbEntity
  8
DEFPOINTS
  6
BYBLOCK
 62
     0
100
AcDbPoint
 10
150.0
 20
-118.5
  0
ENDBLK
  5
15F
330
151
100
AcDbEntity
  8
0
100
AcDbBlockEnd
  0
BLOCK
  5
162
330
161
100
AcDbEntity
  8
0
100
AcDbBlockBegin
  2
*D3
 70
    65
 10
0.0
 20
0.0
  0
LINE
  5
163
330
161
100
AcDbEntity
  8
0
  6
CONTINUOUS
370
     0
 62
     1
100
AcDbLine
 10
170.0
 20
-153.5
 11
170.0
 21
-76.75
  0
LINE
  5
164
330
161
100
AcDbEntity
  8
0
  6
CONTINUOUS
370
     0
 62
     1
100
AcDbLine
 10
171.5
 20
-147.5
 11
170.0
 21
-153.5
  0
LINE
  5
165
330
161
100
AcDbEntity
  8
0
  6
CONTINUOUS
370
     0
 62
     1
100
AcDbLine
 10
170.0
 20
-153.5
 11
168.5
 21
-147.5
  0
LINE
  5
166
330
161
100
AcDbEntity
  8
0
  6
CONTINUOUS
370
     0
 62
     1
100
AcDbLine
 10
170.0
 20
0.0
 11
170.0
 21
-76.75
  0
LINE
  5
167
330
161
100
AcDbEntity
  8
0
  6
CONTINUOUS
370
     0
 62
     1
100
AcDbLine
 10
168.5
 20
-5.999998569488525
 11
170.0
 21
0.0
  0
LINE
  5
168
330
161
100
AcDbEntity
  8
0
  6
CONTINUOUS
370
     0
 62
     1
100
AcDbLine
 10
170.0
 20
0.0
 11
171.5
 21
-6.000001430511475
  0
LINE
  5
169
330
161
100
AcDbEntity
  8
0
  6
CONTINUOUS
370
     0
 62
     1
100
AcDbLine
 10
108.0
 20
-153.5
 11
174.0
 21
-153.5
  0
LINE
  5
16A
330
161
100
AcDbEntity
  8
0
  6
CONTINUOUS
370
     0
 62
     1
100
AcDbLine
 10
88.0
 20
0.0
 11
174.0
 21
0.0
  0
TEXT
  5
16B
330
161
100
AcDbEntity
  8
0
  6
CONTINUOUS
370
     0
 62
     1
100
AcDbText
 10
169.0
 20
-86.5
 30
0.0
 40
6.0
 41
0.7236842105263158
 50
90.0
 51
0.0
  7
STANDARD
 72
     0
  1
153.5
100
AcDbText
  0
POINT
  5
16C
330
161
100
AcDbEntity
  8
DEFPOINTS
  6
BYBLOCK
 62
     0
100
AcDbPoint
 10
105.0
 20
-153.5
  0
POINT
  5
16D
100
AcDbEntity
  8
DEFPOINTS
  6
BYBLOCK
 62
     0
100
AcDbPoint
 10
85.0
 20
0.0
  0
POINT
  5
16E
100
AcDbEntity
  8
DEFPOINTS
  6
BYBLOCK
 62
     0
100
AcDbPoint
 10
170.0
 20
0.0
  0
ENDBLK
  5
16F
330
161
100
AcDbEntity
  8
0
100
AcDbBlockEnd
  0
BLOCK
  5
172
330
171
100
AcDbEntity
  8
0
100
AcDbBlockBegin
  2
*D4
 70
    65
 10
0.0
 20
0.0
  0
LINE
  5
173
330
171
100
AcDbEntity
  8
0
  6
CONTINUOUS
370
     0
 62
     1
100
AcDbLine
 10
190.0
 20
-153.5
 11
190.0
 21
-38.0
  0
LINE
  5
174
330
171
100
AcDbEntity
  8
0
  6
CONTINUOUS
370
     0
 62
     1
100
AcDbLine
 10
191.5
 20
-147.5
 11
190.0
 21
-153.5
  0
LINE
  5
175
330
171
100
AcDbEntity
  8
0
  6
CONTINUOUS
370
     0
 62
     1
100
AcDbLine
 10
190.0
 20
-153.5
 11
188.5
 21
-147.5
  0
LINE
  5
176
330
171
100
AcDbEntity
  8
0
  6
CONTINUOUS
370
     0
 62
     1
100
AcDbLine
 10
190.0
 20
77.5
 11
190.0
 21
-38.0
  0
LINE
  5
177
330
171
100
AcDbEntity
  8
0
  6
CONTINUOUS
370
     0
 62
     1
100
AcDbLine
 10
188.5
 20
71.5
 11
190.0
 21
77.5
  0
LINE
  5
178
330
171
100
AcDbEntity
  8
0
  6
CONTINUOUS
370
     0
 62
     1
100
AcDbLine
 10
190.0
 20
77.5
 11
191.5
 21
71.5
  0
LINE
  5
179
330
171
100
AcDbEntity
  8
0
  6
CONTINUOUS
370
     0
 62
     1
100
AcDbLine
 10
108.0
 20
-153.5
 11
194.0
 21
-153.5
  0
LINE
  5
17A
330
171
100
AcDbEntity
  8
0
  6
CONTINUOUS
370
     0
 62
     1
100
AcDbLine
 10
3.0
 20
77.5
 11
194.0
 21
77.5
  0
TEXT
  5
17B
330
171
100
AcDbEntity
  8
0
  6
CONTINUOUS
370
     0
 62
     1
100
AcDbText
 10
189.0
 20
-43.625
 30
0.0
 40
6.0
 41
0.7236842105263159
 50
90.0
 51
0.0
  7
STANDARD
 72
     0
  1
231
100
AcDbText
  0
POINT
  5
17C
330
171
100
AcDbEntity
  8
DEFPOINTS
  6
BYBLOCK
 62
     0
100
AcDbPoint
 10
105.0
 20
-153.5
  0
POINT
  5
17D
100
AcDbEntity
  8
DEFPOINTS
  6
BYBLOCK
 62
     0
100
AcDbPoint
 10
0.0
 20
77.5
  0
POINT
  5
17E
100
AcDbEntity
  8
DEFPOINTS
  6
BYBLOCK
 62
     0
100
AcDbPoint
 10
190.0
 20
77.5
  0
ENDBLK
  5
17F
330
171
100
AcDbEntity
  8
0
100
AcDbBlockEnd
  0
BLOCK
  5
182
330
181
100
AcDbEntity
  8
0
100
AcDbBlockBegin
  2
*D5
 70
    65
 10
0.0
 20
0.0
  0
LINE
  5
183
330
181
100
AcDbEntity
  8
0
  6
CONTINUOUS
370
     0
 62
     1
100
AcDbLine
 10
271.0
 20
100.0
 11
261.0
 21
100.0
  0
LINE
  5
184
330
181
100
AcDbEntity
  8
0
  6
CONTINUOUS
370
     0
 62
     1
100
AcDbLine
 10
265.0
 20
101.5000076293945
 11
271.0
 21
100.0
  0
LINE
  5
185
330
181
100
AcDbEntity
  8
0
  6
CONTINUOUS
370
     0
 62
     1
100
AcDbLine
 10
271.0
 20
100.0
 11
265.0
 21
98.50000762939453
  0
LINE
  5
186
330
181
100
AcDbEntity
  8
0
  6
CONTINUOUS
370
     0
 62
     1
100
AcDbLine
 10
271.0
 20
100.0
 11
276.5
 21
100.0
  0
LINE
  5
187
330
181
100
AcDbEntity
  8
0
  6
CONTINUOUS
370
     0
 62
     1
100
AcDbLine
 10
282.0
 20
100.0
 11
276.5
 21
100.0
  0
CIRCLE
  5
188
330
181
100
AcDbEntity
  8
0
  6
CONTINUOUS
370
     0
 62
     1
100
AcDbCircle
 10
282.0
 20
100.0
 40
0.75
  0
CIRCLE
  5
189
330
181
100
AcDbEntity
  8
0
  6
CONTINUOUS
370
     0
 62
     1
100
AcDbCircle
 10
282.0
 20
100.0
 40
0.375
  0
LINE
  5
18A
330
181
100
AcDbEntity
  8
0
  6
CONTINUOUS
370
     0
 62
     1
100
AcDbLine
 10
271.0
 20
-85.5
 11
271.0
 21
104.0
  0
LINE
  5
18B
330
181
100
AcDbEntity
  8
0
  6
CONTINUOUS
370
     0
 62
     1
100
AcDbLine
 10
282.0
 20
80.5
 11
282.0
 21
104.0
  0
TEXT
  5
18C
330
181
100
AcDbEntity
  8
0
  6
CONTINUOUS
370
     0
 62
     1
100
AcDbText
 10
272.9375
 20
101.0
 30
0.0
 40
6.0
 41
0.7236842105263159
 50
0.0
 51
0.0
  7
STANDARD
 72
     0
  1
11
100
AcDbText
  0
POINT
  5
18D
330
181
100
AcDbEntity
  8
DEFPOINTS
  6
BYBLOCK
 62
     0
100
AcDbPoint
 10
271.0
 20
-88.5
  0
POINT
  5
18E
100
AcDbEntity
  8
DEFPOINTS
  6
BYBLOCK
 62
     0
100
AcDbPoint
 10
282.0
 20
77.5
  0
POINT
  5
18F
100
AcDbEntity
  8
DEFPOINTS
  6
BYBLOCK
 62
     0
100
AcDbPoint
 10
282.0
 20
100.0
  0
ENDBLK
  5
190
330
181
100
AcDbEntity
  8
0
100
AcDbBlockEnd
  0
BLOCK
  5
193
330
192
100
AcDbEntity
  8
0
100
AcDbBlockBegin
  2
*D6
 70
    65
 10
0.0
 20
0.0
  0
LINE
  5
194
330
192
100
AcDbEntity
  8
0
  6
CONTINUOUS
370
     0
 62
     1
100
AcDbLine
 10
282.0
 20
100.0
 11
290.5
 21
100.0
  0
CIRCLE
  5
195
330
192
100
AcDbEntity
  8
0
  6
CONTINUOUS
370
     0
 62
     1
100
AcDbCircle
 10
282.0
 20
100.0
 40
0.75
  0
CIRCLE
  5
196
330
192
100
AcDbEntity
  8
0
  6
CONTINUOUS
370
     0
 62
     1
100
AcDbCircle
 10
282.0
 20
100.0
 40
0.375
  0
LINE
  5
197
330
192
100
AcDbEntity
  8
0
  6
CONTINUOUS
370
     0
 62
     1
100
AcDbLine
 10
299.0
 20
100.0
 11
290.5
 21
100.0
  0
CIRCLE
  5
198
330
192
100
AcDbEntity
  8
0
  6
CONTINUOUS
370
     0
 62
     1
100
AcDbCircle
 10
299.0
 20
100.0
 40
0.75
  0
CIRCLE
  5
199
330
192
100
AcDbEntity
  8
0
  6
CONTINUOUS
370
     0
 62
     1
100
AcDbCircle
 10
299.0
 20
100.0
 40
0.375
  0
LINE
  5
19A
330
192
100
AcDbEntity
  8
0
  6
CONTINUOUS
370
     0
 62
     1
100
AcDbLine
 10
299.0
 20
80.5
 11
299.0
 21
104.0
  0
TEXT
  5
19B
330
192
100
AcDbEntity
  8
0
  6
CONTINUOUS
370
     0
 62
     1
100
AcDbText
 10
286.9375
 20
101.0
 30
0.0
 40
6.0
 41
0.7236842105263159
 50
0.0
 51
0.0
  7
STANDARD
 72
     0
  1
17
100
AcDbText
  0
POINT
  5
19C
330
192
100
AcDbEntity
  8
DEFPOINTS
  6
BYBLOCK
 62
     0
100
AcDbPoint
 10
282.0
 20
77.5
  0
POINT
  5
19D
100
AcDbEntity
  8
DEFPOINTS
  6
BYBLOCK
 62
     0
100
AcDbPoint
 10
299.0
 20
77.5
  0
POINT
  5
19E
100
AcDbEntity
  8
DEFPOINTS
  6
BYBLOCK
 62
     0
100
AcDbPoint
 10
299.0
 20
100.0
  0
ENDBLK
  5
19F
330
192
100
AcDbEntity
  8
0
100
AcDbBlockEnd
  0
BLOCK
  5
1A2
330
1A1
100
AcDbEntity
  8
0
100
AcDbBlockBegin
  2
*D7
 70
    65
 10
0.0
 20
0.0
  0
LINE
  5
1A3
330
1A1
100
AcDbEntity
  8
0
  6
CONTINUOUS
370
     0
 62
     1
100
AcDbLine
 10
299.0
 20
100.0
 11
308.5
 21
100.0
  0
CIRCLE
  5
1A4
330
1A1
100
AcDbEntity
  8
0
  6
CONTINUOUS
370
     0
 62
     1
100
AcDbCircle
 10
299.0
 20
100.0
 40
0.75
  0
CIRCLE
  5
1A5
330
1A1
100
AcDbEntity
  8
0
  6
CONTINUOUS
370
     0
 62
     1
100
AcDbCircle
 10
299.0
 20
100.0
 40
0.375
  0
LINE
  5
1A6
330
1A1
100
AcDbEntity
  8
0
  6
CONTINUOUS
370
     0
 62
     1
100
AcDbLine
 10
318.0
 20
100.0
 11
308.5
 21
100.0
  0
CIRCLE
  5
1A7
330
1A1
100
AcDbEntity
  8
0
  6
CONTINUOUS
370
     0
 62
     1
100
AcDbCircle
 10
318.0
 20
100.0
 40
0.75
  0
CIRCLE
  5
1A8
330
1A1
100
AcDbEntity
  8
0
  6
CONTINUOUS
370
     0
 62
     1
100
AcDbCircle
 10
318.0
 20
100.0
 40
0.375
  0
LINE
  5
1A9
330
1A1
100
AcDbEntity
  8
0
  6
CONTINUOUS
370
     0
 62
     1
100
AcDbLine
 10
318.0
 20
58.5
 11
318.0
 21
104.0
  0
TEXT
  5
1AA
330
1A1
100
AcDbEntity
  8
0
  6
CONTINUOUS
370
     0
 62
     1
100
AcDbText
 10
304.9375
 20
101.0
 30
0.0
 40
6.0
 41
0.7236842105263159
 50
0.0
 51
0.0
  7
STANDARD
 72
     0
  1
19
100
AcDbText
  0
POINT
  5
1AB
330
1A1
100
AcDbEntity
  8
DEFPOINTS
  6
BYBLOCK
 62
     0
100
AcDbPoint
 10
299.0
 20
77.5
  0
POINT
  5
1AC
100
AcDbEntity
  8
DEFPOINTS
  6
BYBLOCK
 62
     0
100
AcDbPoint
 10
318.0
 20
55.5
  0
POINT
  5
1AD
100
AcDbEntity
  8
DEFPOINTS
  6
BYBLOCK
 62
     0
100
AcDbPoint
 10
318.0
 20
100.0
  0
ENDBLK
  5
1AE
330
1A1
100
AcDbEntity
  8
0
100
AcDbBlockEnd
  0
BLOCK
  5
1B1
330
1B0
100
AcDbEntity
  8
0
100
AcDbBlockBegin
  2
*D8
 70
    65
 10
0.0
 20
0.0
  0
LINE
  5
1B2
330
1B0
100
AcDbEntity
  8
0
  6
CONTINUOUS
370
     0
 62
     1
100
AcDbLine
 10
318.0
 20
100.0
 11
323.5
 21
100.0
  0
CIRCLE
  5
1B3
330
1B0
100
AcDbEntity
  8
0
  6
CONTINUOUS
370
     0
 62
     1
100
AcDbCircle
 10
318.0
 20
100.0
 40
0.75
  0
CIRCLE
  5
1B4
330
1B0
100
AcDbEntity
  8
0
  6
CONTINUOUS
370
     0
 62
     1
100
AcDbCircle
 10
318.0
 20
100.0
 40
0.375
  0
LINE
  5
1B5
330
1B0
100
AcDbEntity
  8
0
  6
CONTINUOUS
370
     0
 62
     1
100
AcDbLine
 10
329.0
 20
100.0
 11
323.5
 21
100.0
  0
LINE
  5
1B6
330
1B0
100
AcDbEntity
  8
0
  6
CONTINUOUS
370
     0
 62
     1
100
AcDbLine
 10
329.0
 20
100.0
 11
339.0
 21
100.0
  0
LINE
  5
1B7
330
1B0
100
AcDbEntity
  8
0
  6
CONTINUOUS
370
     0
 62
     1
100
AcDbLine
 10
335.0
 20
98.5
 11
329.0
 21
100.0
  0
LINE
  5
1B8
330
1B0
100
AcDbEntity
  8
0
  6
CONTINUOUS
370
     0
 62
     1
100
AcDbLine
 10
329.0
 20
100.0
 11
335.0
 21
101.5
  0
LINE
  5
1B9
330
1B0
100
AcDbEntity
  8
0
  6
CONTINUOUS
370
     0
 62
     1
100
AcDbLine
 10
329.0
 20
-55.5
 11
329.0
 21
104.0
  0
TEXT
  5
1BA
330
1B0
100
AcDbEntity
  8
0
  6
CONTINUOUS
370
     0
 62
     1
100
AcDbText
 10
319.9375
 20
101.0
 30
0.0
 40
6.0
 41
0.7236842105263159
 50
0.0
 51
0.0
  7
STANDARD
 72
     0
  1
11
100
AcDbText
  0
POINT
  5
1BB
330
1B0
100
AcDbEntity
  8
DEFPOINTS
  6
BYBLOCK
 62
     0
100
AcDbPoint
 10
318.0
 20
55.5
  0
POINT
  5
1BC
100
AcDbEntity
  8
DEFPOINTS
  6
BYBLOCK
 62
     0
100
AcDbPoint
 10
329.0
 20
-58.5
  0
POINT
  5
1BD
100
AcDbEntity
  8
DEFPOINTS
  6
BYBLOCK
 62
     0
100
AcDbPoint
 10
329.0
 20
100.0
  0
ENDBLK
  5
1BE
330
1B0
100
AcDbEntity
  8
0
100
AcDbBlockEnd
  0
BLOCK
  5
1C1
330
1C0
100
AcDbEntity
  8
0
100
AcDbBlockBegin
  2
*D9
 70
    65
 10
0.0
 20
0.0
  0
LINE
  5
1C2
330
1C0
100
AcDbEntity
  8
0
  6
CONTINUOUS
370
     0
 62
     1
100
AcDbLine
 10
432.0
 20
100.0
 11
450.0
 21
100.0
  0
LINE
  5
1C3
330
1C0
100
AcDbEntity
  8
0
  6
CONTINUOUS
370
     0
 62
     1
100
AcDbLine
 10
438.0
 20
98.5
 11
432.0
 21
100.0
  0
LINE
  5
1C4
330
1C0
100
AcDbEntity
  8
0
  6
CONTINUOUS
370
     0
 62
     1
100
AcDbLine
 10
432.0
 20
100.0
 11
438.0
 21
101.5
  0
LINE
  5
1C5
330
1C0
100
AcDbEntity
  8
0
  6
CONTINUOUS
370
     0
 62
     1
100
AcDbLine
 10
468.0
 20
100.0
 11
450.0
 21
100.0
  0
LINE
  5
1C6
330
1C0
100
AcDbEntity
  8
0
  6
CONTINUOUS
370
     0
 62
     1
100
AcDbLine
 10
462.0
 20
101.5000076293945
 11
468.0
 21
100.0
  0
LINE
  5
1C7
330
1C0
100
AcDbEntity
  8
0
  6
CONTINUOUS
370
     0
 62
     1
100
AcDbLine
 10
468.0
 20
100.0
 11
462.0
 21
98.50000762939453
  0
LINE
  5
1C8
330
1C0
100
AcDbEntity
  8
0
  6
CONTINUOUS
370
     0
 62
     1
100
AcDbLine
 10
432.0
 20
80.5
 11
432.0
 21
104.0
  0
LINE
  5
1C9
330
1C0
100
AcDbEntity
  8
0
  6
CONTINUOUS
370
     0
 62
     1
100
AcDbLine
 10
468.0
 20
58.5
 11
468.0
 21
104.0
  0
TEXT
  5
1CA
330
1C0
100
AcDbEntity
  8
0
  6
CONTINUOUS
370
     0
 62
     1
100
AcDbText
 10
446.4375
 20
101.0
 30
0.0
 40
6.0
 41
0.7236842105263159
 50
0.0
 51
0.0
  7
STANDARD
 72
     0
  1
36
100
AcDbText
  0
POINT
  5
1CB
330
1C0
100
AcDbEntity
  8
DEFPOINTS
  6
BYBLOCK
 62
     0
100
AcDbPoint
 10
432.0
 20
77.5
  0
POINT
  5
1CC
100
AcDbEntity
  8
DEFPOINTS
  6
BYBLOCK
 62
     0
100
AcDbPoint
 10
468.0
 20
55.5
  0
POINT
  5
1CD
100
AcDbEntity
  8
DEFPOINTS
  6
BYBLOCK
 62
     0
100
AcDbPoint
 10
468.0
 20
100.0
  0
ENDBLK
  5
1CE
330
1C0
100
AcDbEntity
  8
0
100
AcDbBlockEnd
  0
BLOCK
  5
1D1
330
1D0
100
AcDbEntity
  8
0
100
AcDbBlockBegin
  2
*D10
 70
    65
 10
0.0
 20
0.0
  0
LINE
  5
1D2
330
1D0
100
AcDbEntity
  8
0
  6
CONTINUOUS
370
     0
 62
     1
100
AcDbLine
 10
380.0
 20
60.5
 11
380.0
 21
0.0
  0
LINE
  5
1D3
330
1D0
100
AcDbEntity
  8
0
  6
CONTINUOUS
370
     0
 62
     1
100
AcDbLine
 10
378.5
 20
54.5
 11
380.0
 21
60.5
  0
LINE
  5
1D4
330
1D0
100
AcDbEntity
  8
0
  6
CONTINUOUS
370
     0
 62
     1
100
AcDbLine
 10
380.0
 20
60.5
 11
381.5
 21
54.49999618530273
  0
LINE
  5
1D5
330
1D0
100
AcDbEntity
  8
0
  6
CONTINUOUS
370
     0
 62
     1
100
AcDbLine
 10
380.0
 20
-60.5
 11
380.0
 21
0.0
  0
LINE
  5
1D6
330
1D0
100
AcDbEntity
  8
0
  6
CONTINUOUS
370
     0
 62
     1
100
AcDbLine
 10
381.5
 20
-54.5
 11
380.0
 21
-60.5
  0
LINE
  5
1D7
330
1D0
100
AcDbEntity
  8
0
  6
CONTINUOUS
370
     0
 62
     1
100
AcDbLine
 10
380.0
 20
-60.5
 11
378.5
 21
-54.5
  0
LINE
  5
1D8
330
1D0
100
AcDbEntity
  8
0
  6
CONTINUOUS
370
     0
 62
     1
100
AcDbLine
 10
429.5
 20
60.5
 11
376.0
 21
60.5
  0
LINE
  5
1D9
330
1D0
100
AcDbEntity
  8
0
  6
CONTINUOUS
370
     0
 62
     1
100
AcDbLine
 10
429.5
 20
-60.5
 11
376.0
 21
-60.5
  0
TEXT
  5
1DA
330
1D0
100
AcDbEntity
  8
0
  6
CONTINUOUS
370
     0
 62
     1
100
AcDbText
 10
379.0
 20
-7.6875
 30
0.0
 40
6.0
 41
0.7236842105263159
 50
90.0
 51
0.0
  7
STANDARD
 72
     0
  1
%%c121
100
AcDbText
  0
POINT
  5
1DB
330
1D0
100
AcDbEntity
  8
DEFPOINTS
  6
BYBLOCK
 62
     0
100
AcDbPoint
 10
432.5
 20
60.5
  0
POINT
  5
1DC
100
AcDbEntity
  8
DEFPOINTS
  6
BYBLOCK
 62
     0
100
AcDbPoint
 10
432.5
 20
-60.5
  0
POINT
  5
1DD
100
AcDbEntity
  8
DEFPOINTS
  6
BYBLOCK
 62
     0
100
AcDbPoint
 10
380.0
 20
-60.5
  0
ENDBLK
  5
1DE
330
1D0
100
AcDbEntity
  8
0
100
AcDbBlockEnd
  0
BLOCK
  5
1E1
330
1E0
100
AcDbEntity
  8
0
100
AcDbBlockBegin
  2
*D11
 70
    65
 10
0.0
 20
0.0
  0
LINE
  5
1E2
330
1E0
100
AcDbEntity
  8
0
  6
CONTINUOUS
370
     0
 62
     1
100
AcDbLine
 10
400.0
 20
31.0
 11
400.0
 21
0.0
  0
LINE
  5
1E3
330
1E0
100
AcDbEntity
  8
0
  6
CONTINUOUS
370
     0
 62
     1
100
AcDbLine
 10
398.5
 20
25.00000190734863
 11
400.0
 21
31.0
  0
LINE
  5
1E4
330
1E0
100
AcDbEntity
  8
0
  6
CONTINUOUS
370
     0
 62
     1
100
AcDbLine
 10
400.0
 20
31.0
 11
401.5
 21
25.0
  0
LINE
  5
1E5
330
1E0
100
AcDbEntity
  8
0
  6
CONTINUOUS
370
     0
 62
     1
100
AcDbLine
 10
400.0
 20
-31.0
 11
400.0
 21
0.0
  0
LINE
  5
1E6
330
1E0
100
AcDbEntity
  8
0
  6
CONTINUOUS
370
     0
 62
     1
100
AcDbLine
 10
401.5
 20
-25.0
 11
400.0
 21
-31.0
  0
LINE
  5
1E7
330
1E0
100
AcDbEntity
  8
0
  6
CONTINUOUS
370
     0
 62
     1
100
AcDbLine
 10
400.0
 20
-31.0
 11
398.5
 21
-25.0
  0
LINE
  5
1E8
330
1E0
100
AcDbEntity
  8
0
  6
CONTINUOUS
370
     0
 62
     1
100
AcDbLine
 10
426.5
 20
31.0
 11
396.0
 21
31.0
  0
LINE
  5
1E9
330
1E0
100
AcDbEntity
  8
0
  6
CONTINUOUS
370
     0
 62
     1
100
AcDbLine
 10
426.5
 20
-31.0
 11
396.0
 21
-31.0
  0
TEXT
  5
1EA
330
1E0
100
AcDbEntity
  8
0
  6
CONTINUOUS
370
     0
 62
     1
100
AcDbText
 10
396.5
 20
-25.15625
 30
0.0
 40
6.0
 41
0.7236842105263159
 50
90.0
 51
0.0
  7
STANDARD
 72
     0
  1
%%c62g5(
100
AcDbText
  0
TEXT
  5
1EB
330
1E0
100
AcDbEntity
  8
0
  6
CONTINUOUS
370
     0
 62
     1
100
AcDbText
 10
393.0
 20
0.46875
 30
0.0
 40
5.0
 41
0.7236842105263158
 50
90.0
 51
0.0
  7
STANDARD
 72
     0
  1
-0.01
100
AcDbText
  0
TEXT
  5
1EC
330
1E0
100
AcDbEntity
  8
0
  6
CONTINUOUS
370
     0
 62
     1
100
AcDbText
 10
399.0
 20
0.46875
 30
0.0
 40
5.0
 41
0.7236842105263159
 50
90.0
 51
0.0
  7
STANDARD
 72
     0
  1
-0.023
100
AcDbText
  0
TEXT
  5
1ED
330
1E0
100
AcDbEntity
  8
0
  6
CONTINUOUS
370
     0
 62
     1
100
AcDbText
 10
396.5
 20
22.15625
 30
0.0
 40
6.0
 41
0.7236842105263159
 50
90.0
 51
0.0
  7
STANDARD
 72
     0
  1
)
100
AcDbText
  0
POINT
  5
1EE
330
1E0
100
AcDbEntity
  8
DEFPOINTS
  6
BYBLOCK
 62
     0
100
AcDbPoint
 10
429.5
 20
31.0
  0
POINT
  5
1EF
100
AcDbEntity
  8
DEFPOINTS
  6
BYBLOCK
 62
     0
100
AcDbPoint
 10
429.5
 20
-31.0
  0
POINT
  5
1F0
100
AcDbEntity
  8
DEFPOINTS
  6
BYBLOCK
 62
     0
100
AcDbPoint
 10
400.0
 20
-31.0
  0
ENDBLK
  5
1F1
330
1E0
100
AcDbEntity
  8
0
100
AcDbBlockEnd
  0
BLOCK
  5
1F4
330
1F3
100
AcDbEntity
  8
0
100
AcDbBlockBegin
  2
*D12
 70
    65
 10
0.0
 20
0.0
  0
LINE
  5
1F5
330
1F3
100
AcDbEntity
  8
0
  6
CONTINUOUS
370
     0
 62
     1
100
AcDbLine
 10
250.0
 20
-88.5
 11
250.0
 21
-121.0
  0
LINE
  5
1F6
330
1F3
100
AcDbEntity
  8
0
  6
CONTINUOUS
370
     0
 62
     1
100
AcDbLine
 10
248.5
 20
-94.5
 11
250.0
 21
-88.5
  0
LINE
  5
1F7
330
1F3
100
AcDbEntity
  8
0
  6
CONTINUOUS
370
     0
 62
     1
100
AcDbLine
 10
250.0
 20
-88.5
 11
251.5
 21
-94.5
  0
LINE
  5
1F8
330
1F3
100
AcDbEntity
  8
0
  6
CONTINUOUS
370
     0
 62
     1
100
AcDbLine
 10
250.0
 20
-153.5
 11
250.0
 21
-121.0
  0
LINE
  5
1F9
330
1F3
100
AcDbEntity
  8
0
  6
CONTINUOUS
370
     0
 62
     1
100
AcDbLine
 10
251.5
 20
-147.5
 11
250.0
 21
-153.5
  0
LINE
  5
1FA
330
1F3
100
AcDbEntity
  8
0
  6
CONTINUOUS
370
     0
 62
     1
100
AcDbLine
 10
250.0
 20
-153.5
 11
248.5
 21
-147.5
  0
LINE
  5
1FB
330
1F3
100
AcDbEntity
  8
0
  6
CONTINUOUS
370
     0
 62
     1
100
AcDbLine
 10
268.0
 20
-88.5
 11
246.0
 21
-88.5
  0
LINE
  5
1FC
330
1F3
100
AcDbEntity
  8
0
  6
CONTINUOUS
370
     0
 62
     1
100
AcDbLine
 10
268.0
 20
-153.5
 11
246.0
 21
-153.5
  0
TEXT
  5
1FD
330
1F3
100
AcDbEntity
  8
0
  6
CONTINUOUS
370
     0
 62
     1
100
AcDbText
 10
249.0
 20
-124.5625
 30
0.0
 40
6.0
 41
0.7236842105263159
 50
90.0
 51
0.0
  7
STANDARD
 72
     0
  1
65
100
AcDbText
  0
POINT
  5
1FE
330
1F3
100
AcDbEntity
  8
DEFPOINTS
  6
BYBLOCK
 62
     0
100
AcDbPoint
 10
271.0
 20
-88.5
  0
POINT
  5
1FF
100
AcDbEntity
  8
DEFPOINTS
  6
BYBLOCK
 62
     0
100
AcDbPoint
 10
271.0
 20
-153.5
  0
POINT
  5
200
100
AcDbEntity
  8
DEFPOINTS
  6
BYBLOCK
 62
     0
100
AcDbPoint
 10
250.0
 20
-153.5
  0
ENDBLK
  5
201
330
1F3
100
AcDbEntity
  8
0
100
AcDbBlockEnd
  0
BLOCK
  5
204
330
203
100
AcDbEntity
  8
0
100
AcDbBlockBegin
  2
*D13
 70
    65
 10
0.0
 20
0.0
  0
LINE
  5
205
330
203
100
AcDbEntity
  8
0
  6
CONTINUOUS
370
     0
 62
     1
100
AcDbLine
 10
271.0
 20
-180.0
 11
261.0
 21
-180.0
  0
LINE
  5
206
330
203
100
AcDbEntity
  8
0
  6
CONTINUOUS
370
     0
 62
     1
100
AcDbLine
 10
265.0
 20
-178.5
 11
271.0
 21
-180.0
  0
LINE
  5
207
330
203
100
AcDbEntity
  8
0
  6
CONTINUOUS
370
     0
 62
     1
100
AcDbLine
 10
271.0
 20
-180.0
 11
265.0
 21
-181.5
  0
LINE
  5
208
330
203
100
AcDbEntity
  8
0
  6
CONTINUOUS
370
     0
 62
     1
100
AcDbLine
 10
271.0
 20
-180.0
 11
279.75
 21
-180.0
  0
LINE
  5
209
330
203
100
AcDbEntity
  8
0
  6
CONTINUOUS
370
     0
 62
     1
100
AcDbLine
 10
288.5
 20
-180.0
 11
279.75
 21
-180.0
  0
LINE
  5
20A
330
203
100
AcDbEntity
  8
0
  6
CONTINUOUS
370
     0
 62
     1
100
AcDbLine
 10
288.5
 20
-180.0
 11
298.5
 21
-180.0
  0
LINE
  5
20B
330
203
100
AcDbEntity
  8
0
  6
CONTINUOUS
370
     0
 62
     1
100
AcDbLine
 10
294.5
 20
-181.5
 11
288.5
 21
-180.0
  0
LINE
  5
20C
330
203
100
AcDbEntity
  8
0
  6
CONTINUOUS
370
     0
 62
     1
100
AcDbLine
 10
288.5
 20
-180.0
 11
294.5
 21
-178.5
  0
LINE
  5
20D
330
203
100
AcDbEntity
  8
0
  6
CONTINUOUS
370
     0
 62
     1
100
AcDbLine
 10
271.0
 20
-156.5
 11
271.0
 21
-184.0
  0
LINE
  5
20E
330
203
100
AcDbEntity
  8
0
  6
CONTINUOUS
370
     0
 62
     1
100
AcDbLine
 10
288.5
 20
-136.5
 11
288.5
 21
-184.0
  0
TEXT
  5
20F
330
203
100
AcDbEntity
  8
0
  6
CONTINUOUS
370
     0
 62
     1
100
AcDbText
 10
272.0625
 20
-179.0
 30
0.0
 40
6.0
 41
0.7236842105263159
 50
0.0
 51
0.0
  7
STANDARD
 72
     0
  1
17.5
100
AcDbText
  0
POINT
  5
210
330
203
100
AcDbEntity
  8
DEFPOINTS
  6
BYBLOCK
 62
     0
100
AcDbPoint
 10
271.0
 20
-153.5
  0
POINT
  5
211
100
AcDbEntity
  8
DEFPOINTS
  6
BYBLOCK
 62
     0
100
AcDbPoint
 10
288.5
 20
-133.5
  0
POINT
  5
212
100
AcDbEntity
  8
DEFPOINTS
  6
BYBLOCK
 62
     0
100
AcDbPoint
 10
288.5
 20
-180.0
  0
ENDBLK
  5
213
330
203
100
AcDbEntity
  8
0
100
AcDbBlockEnd
  0
BLOCK
  5
216
330
215
100
AcDbEntity
  8
0
100
AcDbBlockBegin
  2
*D14
 70
    65
 10
0.0
 20
0.0
  0
LINE
  5
217
330
215
100
AcDbEntity
  8
0
  6
CONTINUOUS
370
     0
 62
     1
100
AcDbLine
 10
271.0
 20
-200.0
 11
284.25
 21
-200.0
  0
LINE
  5
218
330
215
100
AcDbEntity
  8
0
  6
CONTINUOUS
370
     0
 62
     1
100
AcDbLine
 10
277.0
 20
-201.5
 11
271.0
 21
-200.0
  0
LINE
  5
219
330
215
100
AcDbEntity
  8
0
  6
CONTINUOUS
370
     0
 62
     1
100
AcDbLine
 10
271.0
 20
-200.0
 11
277.0
 21
-198.5
  0
LINE
  5
21A
330
215
100
AcDbEntity
  8
0
  6
CONTINUOUS
370
     0
 62
     1
100
AcDbLine
 10
297.5
 20
-200.0
 11
284.25
 21
-200.0
  0
LINE
  5
21B
330
215
100
AcDbEntity
  8
0
  6
CONTINUOUS
370
     0
 62
     1
100
AcDbLine
 10
291.5
 20
-198.5
 11
297.5
 21
-200.0
  0
LINE
  5
21C
330
215
100
AcDbEntity
  8
0
  6
CONTINUOUS
370
     0
 62
     1
100
AcDbLine
 10
297.5
 20
-200.0
 11
291.5
 21
-201.5
  0
LINE
  5
21D
330
215
100
AcDbEntity
  8
0
  6
CONTINUOUS
370
     0
 62
     1
100
AcDbLine
 10
271.0
 20
-156.5
 11
271.0
 21
-204.0
  0
LINE
  5
21E
330
215
100
AcDbEntity
  8
0
  6
CONTINUOUS
370
     0
 62
     1
100
AcDbLine
 10
297.5
 20
-156.5
 11
297.5
 21
-204.0
  0
TEXT
  5
21F
330
215
100
AcDbEntity
  8
0
  6
CONTINUOUS
370
     0
 62
     1
100
AcDbText
 10
276.5625
 20
-199.0
 30
0.0
 40
6.0
 41
0.7236842105263159
 50
0.0
 51
0.0
  7
STANDARD
 72
     0
  1
26.5
100
AcDbText
  0
POINT
  5
220
330
215
100
AcDbEntity
  8
DEFPOINTS
  6
BYBLOCK
 62
     0
100
AcDbPoint
 10
271.0
 20
-153.5
  0
POINT
  5
221
100
AcDbEntity
  8
DEFPOINTS
  6
BYBLOCK
 62
     0
100
AcDbPoint
 10
297.5
 20
-153.5
  0
POINT
  5
222
100
AcDbEntity
  8
DEFPOINTS
  6
BYBLOCK
 62
     0
100
AcDbPoint
 10
297.5
 20
-200.0
  0
ENDBLK
  5
223
330
215
100
AcDbEntity
  8
0
100
AcDbBlockEnd
  0
BLOCK
  5
226
330
225
100
AcDbEntity
  8
0
100
AcDbBlockBegin
  2
*D15
 70
    65
 10
0.0
 20
0.0
  0
LINE
  5
227
330
225
100
AcDbEntity
  8
0
  6
CONTINUOUS
370
     0
 62
     1
100
AcDbLine
 10
297.5
 20
-200.0
 11
310.0
 21
-200.0
  0
LINE
  5
228
330
225
100
AcDbEntity
  8
0
  6
CONTINUOUS
370
     0
 62
     1
100
AcDbLine
 10
303.5
 20
-201.5
 11
297.5
 21
-200.0
  0
LINE
  5
229
330
225
100
AcDbEntity
  8
0
  6
CONTINUOUS
370
     0
 62
     1
100
AcDbLine
 10
297.5
 20
-200.0
 11
303.5
 21
-198.5
  0
LINE
  5
22A
330
225
100
AcDbEntity
  8
0
  6
CONTINUOUS
370
     0
 62
     1
100
AcDbLine
 10
322.5
 20
-200.0
 11
310.0
 21
-200.0
  0
LINE
  5
22B
330
225
100
AcDbEntity
  8
0
  6
CONTINUOUS
370
     0
 62
     1
100
AcDbLine
 10
316.5
 20
-198.5
 11
322.5
 21
-200.0
  0
LINE
  5
22C
330
225
100
AcDbEntity
  8
0
  6
CONTINUOUS
370
     0
 62
     1
100
AcDbLine
 10
322.5
 20
-200.0
 11
316.5
 21
-201.5
  0
LINE
  5
22D
330
225
100
AcDbEntity
  8
0
  6
CONTINUOUS
370
     0
 62
     1
100
AcDbLine
 10
297.5
 20
-156.5
 11
297.5
 21
-204.0
  0
LINE
  5
22E
330
225
100
AcDbEntity
  8
0
  6
CONTINUOUS
370
     0
 62
     1
100
AcDbLine
 10
322.5
 20
-156.5
 11
322.5
 21
-204.0
  0
TEXT
  5
22F
330
225
100
AcDbEntity
  8
0
  6
CONTINUOUS
370
     0
 62
     1
100
AcDbText
 10
306.4375
 20
-199.0
 30
0.0
 40
6.0
 41
0.7236842105263159
 50
0.0
 51
0.0
  7
STANDARD
 72
     0
  1
25
100
AcDbText
  0
POINT
  5
230
330
225
100
AcDbEntity
  8
DEFPOINTS
  6
BYBLOCK
 62
     0
100
AcDbPoint
 10
297.5
 20
-153.5
  0
POINT
  5
231
100
AcDbEntity
  8
DEFPOINTS
  6
BYBLOCK
 62
     0
100
AcDbPoint
 10
322.5
 20
-153.5
  0
POINT
  5
232
100
AcDbEntity
  8
DEFPOINTS
  6
BYBLOCK
 62
     0
100
AcDbPoint
 10
322.5
 20
-200.0
  0
ENDBLK
  5
233
330
225
100
AcDbEntity
  8
0
100
AcDbBlockEnd
  0
BLOCK
  5
236
330
235
100
AcDbEntity
  8
0
100
AcDbBlockBegin
  2
*D16
 70
    65
 10
0.0
 20
0.0
  0
LINE
  5
237
330
235
100
AcDbEntity
  8
0
  6
CONTINUOUS
370
     0
 62
     1
100
AcDbLine
 10
329.0
 20
-220.0
 11
300.0
 21
-220.0
  0
LINE
  5
238
330
235
100
AcDbEntity
  8
0
  6
CONTINUOUS
370
     0
 62
     1
100
AcDbLine
 10
323.0
 20
-218.5
 11
329.0
 21
-220.0
  0
LINE
  5
239
330
235
100
AcDbEntity
  8
0
  6
CONTINUOUS
370
     0
 62
     1
100
AcDbLine
 10
329.0
 20
-220.0
 11
323.0
 21
-221.5
  0
LINE
  5
23A
330
235
100
AcDbEntity
  8
0
  6
CONTINUOUS
370
     0
 62
     1
100
AcDbLine
 10
271.0
 20
-220.0
 11
300.0
 21
-220.0
  0
LINE
  5
23B
330
235
100
AcDbEntity
  8
0
  6
CONTINUOUS
370
     0
 62
     1
100
AcDbLine
 10
277.0
 20
-221.5
 11
271.0
 21
-220.0
  0
LINE
  5
23C
330
235
100
AcDbEntity
  8
0
  6
CONTINUOUS
370
     0
 62
     1
100
AcDbLine
 10
271.0
 20
-220.0
 11
277.0
 21
-218.5
  0
LINE
  5
23D
330
235
100
AcDbEntity
  8
0
  6
CONTINUOUS
370
     0
 62
     1
100
AcDbLine
 10
329.0
 20
-156.5
 11
329.0
 21
-224.0
  0
LINE
  5
23E
330
235
100
AcDbEntity
  8
0
  6
CONTINUOUS
370
     0
 62
     1
100
AcDbLine
 10
271.0
 20
-156.5
 11
271.0
 21
-224.0
  0
TEXT
  5
23F
330
235
100
AcDbEntity
  8
0
  6
CONTINUOUS
370
     0
 62
     1
100
AcDbText
 10
296.4375
 20
-219.0
 30
0.0
 40
6.0
 41
0.7236842105263159
 50
0.0
 51
0.0
  7
STANDARD
 72
     0
  1
58
100
AcDbText
  0
POINT
  5
240
330
235
100
AcDbEntity
  8
DEFPOINTS
  6
BYBLOCK
 62
     0
100
AcDbPoint
 10
329.0
 20
-153.5
  0
POINT
  5
241
100
AcDbEntity
  8
DEFPOINTS
  6
BYBLOCK
 62
     0
100
AcDbPoint
 10
271.0
 20
-153.5
  0
POINT
  5
242
100
AcDbEntity
  8
DEFPOINTS
  6
BYBLOCK
 62
     0
100
AcDbPoint
 10
271.0
 20
-220.0
  0
ENDBLK
  5
243
330
235
100
AcDbEntity
  8
0
100
AcDbBlockEnd
  0
BLOCK
  5
246
330
245
100
AcDbEntity
  8
0
100
AcDbBlockBegin
  2
*D17
 70
    65
 10
0.0
 20
0.0
  0
LINE
  5
247
330
245
100
AcDbEntity
  8
0
  6
CONTINUOUS
370
     0
 62
     1
100
AcDbLine
 10
350.0
 20
-153.5
 11
350.0
 21
-106.0
  0
LINE
  5
248
330
245
100
AcDbEntity
  8
0
  6
CONTINUOUS
370
     0
 62
     1
100
AcDbLine
 10
351.5
 20
-147.5
 11
350.0
 21
-153.5
  0
LINE
  5
249
330
245
100
AcDbEntity
  8
0
  6
CONTINUOUS
370
     0
 62
     1
100
AcDbLine
 10
350.0
 20
-153.5
 11
348.5
 21
-147.5
  0
LINE
  5
24A
330
245
100
AcDbEntity
  8
0
  6
CONTINUOUS
370
     0
 62
     1
100
AcDbLine
 10
350.0
 20
-58.5
 11
350.0
 21
-106.0
  0
LINE
  5
24B
330
245
100
AcDbEntity
  8
0
  6
CONTINUOUS
370
     0
 62
     1
100
AcDbLine
 10
348.5
 20
-64.5
 11
350.0
 21
-58.5
  0
LINE
  5
24C
330
245
100
AcDbEntity
  8
0
  6
CONTINUOUS
370
     0
 62
     1
100
AcDbLine
 10
350.0
 20
-58.5
 11
351.5
 21
-64.5
  0
LINE
  5
24D
330
245
100
AcDbEntity
  8
0
  6
CONTINUOUS
370
     0
 62
     1
100
AcDbLine
 10
332.0
 20
-153.5
 11
354.0
 21
-153.5
  0
LINE
  5
24E
330
245
100
AcDbEntity
  8
0
  6
CONTINUOUS
370
     0
 62
     1
100
AcDbLine
 10
332.0
 20
-58.5
 11
354.0
 21
-58.5
  0
TEXT
  5
24F
330
245
100
AcDbEntity
  8
0
  6
CONTINUOUS
370
     0
 62
     1
100
AcDbText
 10
349.0
 20
-109.5625
 30
0.0
 40
6.0
 41
0.7236842105263159
 50
90.0
 51
0.0
  7
STANDARD
 72
     0
  1
95
100
AcDbText
  0
POINT
  5
250
330
245
100
AcDbEntity
  8
DEFPOINTS
  6
BYBLOCK
 62
     0
100
AcDbPoint
 10
329.0
 20
-153.5
  0
POINT
  5
251
100
AcDbEntity
  8
DEFPOINTS
  6
BYBLOCK
 62
     0
100
AcDbPoint
 10
329.0
 20
-58.5
  0
POINT
  5
252
100
AcDbEntity
  8
DEFPOINTS
  6
BYBLOCK
 62
     0
100
AcDbPoint
 10
350.0
 20
-58.5
  0
ENDBLK
  5
253
330
245
100
AcDbEntity
  8
0
100
AcDbBlockEnd
  0
BLOCK
  5
256
330
255
100
AcDbEntity
  8
0
100
AcDbBlockBegin
  2
*D18
 70
    65
 10
0.0
 20
0.0
  0
LINE
  5
257
330
255
100
AcDbEntity
  8
0
  6
CONTINUOUS
370
     0
 62
     1
100
AcDbLine
 10
90.0
 20
-130.0
 11
80.0
 21
-130.0
  0
LINE
  5
258
330
255
100
AcDbEntity
  8
0
  6
CONTINUOUS
370
     0
 62
     1
100
AcDbLine
 10
84.0
 20
-128.5
 11
90.0
 21
-130.0
  0
LINE
  5
259
330
255
100
AcDbEntity
  8
0
  6
CONTINUOUS
370
     0
 62
     1
100
AcDbLine
 10
90.0
 20
-130.0
 11
84.0
 21
-131.5
  0
LINE
  5
25A
330
255
100
AcDbEntity
  8
0
  6
CONTINUOUS
370
     0
 62
     1
100
AcDbLine
 10
90.0
 20
-130.0
 11
95.0
 21
-130.0
  0
LINE
  5
25B
330
255
100
AcDbEntity
  8
0
  6
CONTINUOUS
370
     0
 62
     1
100
AcDbLine
 10
100.0
 20
-130.0
 11
95.0
 21
-130.0
  0
LINE
  5
25C
330
255
100
AcDbEntity
  8
0
  6
CONTINUOUS
370
     0
 62
     1
100
AcDbLine
 10
100.0
 20
-130.0
 11
110.0
 21
-130.0
  0
LINE
  5
25D
330
255
100
AcDbEntity
  8
0
  6
CONTINUOUS
370
     0
 62
     1
100
AcDbLine
 10
106.0
 20
-131.5
 11
100.0
 21
-130.0
  0
LINE
  5
25E
330
255
100
AcDbEntity
  8
0
  6
CONTINUOUS
370
     0
 62
     1
100
AcDbLine
 10
100.0
 20
-130.0
 11
106.0
 21
-128.5
  0
LINE
  5
25F
330
255
100
AcDbEntity
  8
0
  6
CONTINUOUS
370
     0
 62
     1
100
AcDbLine
 10
90.0
 20
-140.5
 11
90.0
 21
-126.0
  0
LINE
  5
260
330
255
100
AcDbEntity
  8
0
  6
CONTINUOUS
370
     0
 62
     1
100
AcDbLine
 10
100.0
 20
-140.5
 11
100.0
 21
-126.0
  0
TEXT
  5
261
330
255
100
AcDbEntity
  8
0
  6
CONTINUOUS
370
     0
 62
     1
100
AcDbText
 10
91.4375
 20
-129.0
 30
0.0
 40
6.0
 41
0.7236842105263159
 50
0.0
 51
0.0
  7
STANDARD
 72
     0
  1
10
100
AcDbText
  0
POINT
  5
262
330
255
100
AcDbEntity
  8
DEFPOINTS
  6
BYBLOCK
 62
     0
100
AcDbPoint
 10
90.0
 20
-143.5
  0
POINT
  5
263
100
AcDbEntity
  8
DEFPOINTS
  6
BYBLOCK
 62
     0
100
AcDbPoint
 10
100.0
 20
-143.5
  0
POINT
  5
264
100
AcDbEntity
  8
DEFPOINTS
  6
BYBLOCK
 62
     0
100
AcDbPoint
 10
100.0
 20
-130.0
  0
ENDBLK
  5
265
330
255
100
AcDbEntity
  8
0
100
AcDbBlockEnd
  0
BLOCK
  5
268
330
267
100
AcDbEntity
  8
0
100
AcDbBlockBegin
  2
*D19
 70
    65
 10
0.0
 20
0.0
  0
LINE
  5
269
330
267
100
AcDbEntity
  8
0
  6
CONTINUOUS
370
     0
 62
     1
100
AcDbLine
 10
-90.0
 20
-130.0
 11
-80.0
 21
-130.0
  0
LINE
  5
26A
330
267
100
AcDbEntity
  8
0
  6
CONTINUOUS
370
     0
 62
     1
100
AcDbLine
 10
-84.0
 20
-131.5
 11
-90.0
 21
-130.0
  0
LINE
  5
26B
330
267
100
AcDbEntity
  8
0
  6
CONTINUOUS
370
     0
 62
     1
100
AcDbLine
 10
-90.0
 20
-130.0
 11
-84.0
 21
-128.5
  0
LINE
  5
26C
330
267
100
AcDbEntity
  8
0
  6
CONTINUOUS
370
     0
 62
     1
100
AcDbLine
 10
-90.0
 20
-130.0
 11
-95.0
 21
-130.0
  0
LINE
  5
26D
330
267
100
AcDbEntity
  8
0
  6
CONTINUOUS
370
     0
 62
     1
100
AcDbLine
 10
-100.0
 20
-130.0
 11
-95.0
 21
-130.0
  0
LINE
  5
26E
330
267
100
AcDbEntity
  8
0
  6
CONTINUOUS
370
     0
 62
     1
100
AcDbLine
 10
-100.0
 20
-130.0
 11
-110.0
 21
-130.0
  0
LINE
  5
26F
330
267
100
AcDbEntity
  8
0
  6
CONTINUOUS
370
     0
 62
     1
100
AcDbLine
 10
-106.0
 20
-128.5
 11
-100.0
 21
-130.0
  0
LINE
  5
270
330
267
100
AcDbEntity
  8
0
  6
CONTINUOUS
370
     0
 62
     1
100
AcDbLine
 10
-100.0
 20
-130.0
 11
-106.0
 21
-131.5
  0
LINE
  5
271
330
267
100
AcDbEntity
  8
0
  6
CONTINUOUS
370
     0
 62
     1
100
AcDbLine
 10
-90.0
 20
-140.5
 11
-90.0
 21
-126.0
  0
LINE
  5
272
330
267
100
AcDbEntity
  8
0
  6
CONTINUOUS
370
     0
 62
     1
100
AcDbLine
 10
-100.0
 20
-140.5
 11
-100.0
 21
-126.0
  0
TEXT
  5
273
330
267
100
AcDbEntity
  8
0
  6
CONTINUOUS
370
     0
 62
     1
100
AcDbText
 10
-98.5625
 20
-129.0
 30
0.0
 40
6.0
 41
0.7236842105263159
 50
0.0
 51
0.0
  7
STANDARD
 72
     0
  1
10
100
AcDbText
  0
POINT
  5
274
330
267
100
AcDbEntity
  8
DEFPOINTS
  6
BYBLOCK
 62
     0
100
AcDbPoint
 10
-90.0
 20
-143.5
  0
POINT
  5
275
100
AcDbEntity
  8
DEFPOINTS
  6
BYBLOCK
 62
     0
100
AcDbPoint
 10
-100.0
 20
-143.5
  0
POINT
  5
276
100
AcDbEntity
  8
DEFPOINTS
  6
BYBLOCK
 62
     0
100
AcDbPoint
 10
-100.0
 20
-130.0
  0
ENDBLK
  5
277
330
267
100
AcDbEntity
  8
0
100
AcDbBlockEnd
  0
BLOCK
  5
27A
330
279
100
AcDbEntity
  8
0
100
AcDbBlockBegin
  2
*D20
 70
    65
 10
0.0
 20
0.0
  0
LINE
  5
27B
330
279
100
AcDbEntity
  8
0
  6
CONTINUOUS
370
     0
 62
     1
100
AcDbLine
 10
-75.0
 20
-180.0
 11
0.0
 21
-180.0
  0
LINE
  5
27C
330
279
100
AcDbEntity
  8
0
  6
CONTINUOUS
370
     0
 62
     1
100
AcDbLine
 10
-69.0
 20
-181.5
 11
-75.0
 21
-180.0
  0
LINE
  5
27D
330
279
100
AcDbEntity
  8
0
  6
CONTINUOUS
370
     0
 62
     1
100
AcDbLine
 10
-75.0
 20
-180.0
 11
-69.0
 21
-178.5
  0
LINE
  5
27E
330
279
100
AcDbEntity
  8
0
  6
CONTINUOUS
370
     0
 62
     1
100
AcDbLine
 10
75.0
 20
-180.0
 11
0.0
 21
-180.0
  0
LINE
  5
27F
330
279
100
AcDbEntity
  8
0
  6
CONTINUOUS
370
     0
 62
     1
100
AcDbLine
 10
69.0
 20
-178.5
 11
75.0
 21
-180.0
  0
LINE
  5
280
330
279
100
AcDbEntity
  8
0
  6
CONTINUOUS
370
     0
 62
     1
100
AcDbLine
 10
75.0
 20
-180.0
 11
69.0
 21
-181.5
  0
LINE
  5
281
330
279
100
AcDbEntity
  8
0
  6
CONTINUOUS
370
     0
 62
     1
100
AcDbLine
 10
-75.0
 20
-146.5
 11
-75.0
 21
-184.0
  0
LINE
  5
282
330
279
100
AcDbEntity
  8
0
  6
CONTINUOUS
370
     0
 62
     1
100
AcDbLine
 10
75.0
 20
-146.5
 11
75.0
 21
-184.0
  0
TEXT
  5
283
330
279
100
AcDbEntity
  8
0
  6
CONTINUOUS
370
     0
 62
     1
100
AcDbText
 10
-5.625
 20
-179.0
 30
0.0
 40
6.0
 41
0.7236842105263159
 50
0.0
 51
0.0
  7
STANDARD
 72
     0
  1
150
100
AcDbText
  0
POINT
  5
284
330
279
100
AcDbEntity
  8
DEFPOINTS
  6
BYBLOCK
 62
     0
100
AcDbPoint
 10
-75.0
 20
-143.5
  0
POINT
  5
285
100
AcDbEntity
  8
DEFPOINTS
  6
BYBLOCK
 62
     0
100
AcDbPoint
 10
75.0
 20
-143.5
  0
POINT
  5
286
100
AcDbEntity
  8
DEFPOINTS
  6
BYBLOCK
 62
     0
100
AcDbPoint
 10
75.0
 20
-180.0
  0
ENDBLK
  5
287
330
279
100
AcDbEntity
  8
0
100
AcDbBlockEnd
  0
BLOCK
  5
28A
330
289
100
AcDbEntity
  8
0
100
AcDbBlockBegin
  2
*D21
 70
    65
 10
0.0
 20
0.0
  0
LINE
  5
28B
330
289
100
AcDbEntity
  8
0
  6
CONTINUOUS
370
     0
 62
     1
100
AcDbLine
 10
-95.0
 20
-200.0
 11
0.0
 21
-200.0
  0
LINE
  5
28C
330
289
100
AcDbEntity
  8
0
  6
CONTINUOUS
370
     0
 62
     1
100
AcDbLine
 10
-89.0
 20
-201.5
 11
-95.0
 21
-200.0
  0
LINE
  5
28D
330
289
100
AcDbEntity
  8
0
  6
CONTINUOUS
370
     0
 62
     1
100
AcDbLine
 10
-95.0
 20
-200.0
 11
-89.0
 21
-198.5
  0
LINE
  5
28E
330
289
100
AcDbEntity
  8
0
  6
CONTINUOUS
370
     0
 62
     1
100
AcDbLine
 10
95.0
 20
-200.0
 11
0.0
 21
-200.0
  0
LINE
  5
28F
330
289
100
AcDbEntity
  8
0
  6
CONTINUOUS
370
     0
 62
     1
100
AcDbLine
 10
89.0
 20
-198.5
 11
95.0
 21
-200.0
  0
LINE
  5
290
330
289
100
AcDbEntity
  8
0
  6
CONTINUOUS
370
     0
 62
     1
100
AcDbLine
 10
95.0
 20
-200.0
 11
89.0
 21
-201.5
  0
LINE
  5
291
330
289
100
AcDbEntity
  8
0
  6
CONTINUOUS
370
     0
 62
     1
100
AcDbLine
 10
-95.0
 20
-161.5
 11
-95.0
 21
-204.0
  0
LINE
  5
292
330
289
100
AcDbEntity
  8
0
  6
CONTINUOUS
370
     0
 62
     1
100
AcDbLine
 10
95.0
 20
-161.5
 11
95.0
 21
-204.0
  0
TEXT
  5
293
330
289
100
AcDbEntity
  8
0
  6
CONTINUOUS
370
     0
 62
     1
100
AcDbText
 10
-5.625
 20
-199.0
 30
0.0
 40
6.0
 41
0.7236842105263159
 50
0.0
 51
0.0
  7
STANDARD
 72
     0
  1
190
100
AcDbText
  0
POINT
  5
294
330
289
100
AcDbEntity
  8
DEFPOINTS
  6
BYBLOCK
 62
     0
100
AcDbPoint
 10
-95.0
 20
-158.5
  0
POINT
  5
295
100
AcDbEntity
  8
DEFPOINTS
  6
BYBLOCK
 62
     0
100
AcDbPoint
 10
95.0
 20
-158.5
  0
POINT
  5
296
100
AcDbEntity
  8
DEFPOINTS
  6
BYBLOCK
 62
     0
100
AcDbPoint
 10
95.0
 20
-200.0
  0
ENDBLK
  5
297
330
289
100
AcDbEntity
  8
0
100
AcDbBlockEnd
  0
BLOCK
  5
29A
330
299
100
AcDbEntity
  8
0
100
AcDbBlockBegin
  2
*D22
 70
    65
 10
0.0
 20
0.0
  0
LINE
  5
29B
330
299
100
AcDbEntity
  8
0
  6
CONTINUOUS
370
     0
 62
     1
100
AcDbLine
 10
-105.0
 20
-220.0
 11
0.0
 21
-220.0
  0
LINE
  5
29C
330
299
100
AcDbEntity
  8
0
  6
CONTINUOUS
370
     0
 62
     1
100
AcDbLine
 10
-99.0
 20
-221.5
 11
-105.0
 21
-220.0
  0
LINE
  5
29D
330
299
100
AcDbEntity
  8
0
  6
CONTINUOUS
370
     0
 62
     1
100
AcDbLine
 10
-105.0
 20
-220.0
 11
-99.0
 21
-218.5
  0
LINE
  5
29E
330
299
100
AcDbEntity
  8
0
  6
CONTINUOUS
370
     0
 62
     1
100
AcDbLine
 10
105.0
 20
-220.0
 11
0.0
 21
-220.0
  0
LINE
  5
29F
330
299
100
AcDbEntity
  8
0
  6
CONTINUOUS
370
     0
 62
     1
100
AcDbLine
 10
99.0
 20
-218.5
 11
105.0
 21
-220.0
  0
LINE
  5
2A0
330
299
100
AcDbEntity
  8
0
  6
CONTINUOUS
370
     0
 62
     1
100
AcDbLine
 10
105.0
 20
-220.0
 11
99.0
 21
-221.5
  0
LINE
  5
2A1
330
299
100
AcDbEntity
  8
0
  6
CONTINUOUS
370
     0
 62
     1
100
AcDbLine
 10
-105.0
 20
-156.5
 11
-105.0
 21
-224.0
  0
LINE
  5
2A2
330
299
100
AcDbEntity
  8
0
  6
CONTINUOUS
370
     0
 62
     1
100
AcDbLine
 10
105.0
 20
-156.5
 11
105.0
 21
-224.0
  0
TEXT
  5
2A3
330
299
100
AcDbEntity
  8
0
  6
CONTINUOUS
370
     0
 62
     1
100
AcDbText
 10
-5.625
 20
-219.0
 30
0.0
 40
6.0
 41
0.7236842105263159
 50
0.0
 51
0.0
  7
STANDARD
 72
     0
  1
210
100
AcDbText
  0
POINT
  5
2A4
330
299
100
AcDbEntity
  8
DEFPOINTS
  6
BYBLOCK
 62
     0
100
AcDbPoint
 10
-105.0
 20
-153.5
  0
POINT
  5
2A5
100
AcDbEntity
  8
DEFPOINTS
  6
BYBLOCK
 62
     0
100
AcDbPoint
 10
105.0
 20
-153.5
  0
POINT
  5
2A6
100
AcDbEntity
  8
DEFPOINTS
  6
BYBLOCK
 62
     0
100
AcDbPoint
 10
105.0
 20
-220.0
  0
ENDBLK
  5
2A7
330
299
100
AcDbEntity
  8
0
100
AcDbBlockEnd
  0
BLOCK
  5
2E8
330
2E7
100
AcDbEntity
  8
0
100
AcDbBlockBegin
  2
*D23
 70
    65
 10
0.0
 20
0.0
  0
LINE
  5
2E9
330
2E7
100
AcDbEntity
  8
0
  6
CONTINUOUS
370
     0
 62
     1
100
AcDbLine
 10
4.249375820159912
 20
53.64888000488281
 11
30.0
 21
100.0
  0
LINE
  5
2EA
330
2E7
100
AcDbEntity
  8
0
  6
CONTINUOUS
370
     0
 62
     1
100
AcDbLine
 10
30.0
 20
100.0
 11
133.625
 21
100.0
  0
LINE
  5
2EB
330
2E7
100
AcDbEntity
  8
0
  6
CONTINUOUS
370
     0
 62
     1
100
AcDbLine
 10
8.470163345336914
 20
58.16938400268555
 11
4.249375343322754
 21
53.64888000488281
  0
LINE
  5
2EC
330
2E7
100
AcDbEntity
  8
0
  6
CONTINUOUS
370
     0
 62
     1
100
AcDbLine
 10
4.249375343322754
 20
53.64888000488281
 11
5.846304893493652
 21
59.62381362915039
  0
TEXT
  5
2ED
330
2E7
100
AcDbEntity
  8
0
  6
CONTINUOUS
370
     0
 62
     1
100
AcDbText
 10
31.0
 20
108.5
 30
0.0
 40
6.0
 41
0.6555023923444976
 50
0.0
 51
0.0
  7
BIGFONT
 72
     0
  1
８－φ１７．５　Ｐ．Ｃ．Ｄ．９２　周上８等配
100
AcDbText
  0
TEXT
  5
2EE
330
2E7
100
AcDbEntity
  8
0
  6
CONTINUOUS
370
     0
 62
     1
100
AcDbText
 10
31.0
 20
101.0
 30
0.0
 40
6.0
 41
0.9064327485380117
 50
0.0
 51
0.0
  7
BIGFONT
 72
     0
  1
（表側フランジ部）
100
AcDbText
  0
POINT
  5
2EF
100
AcDbEntity
  8
DEFPOINTS
  6
BYBLOCK
 62
     0
100
AcDbPoint
 10
-4.24937564781303
 20
38.3511238339365
  0
POINT
  5
2F0
100
AcDbEntity
  8
DEFPOINTS
  6
BYBLOCK
 62
     0
100
AcDbPoint
 10
4.24937564781303
 20
53.6488761660635
  0
ENDBLK
  5
2F1
330
2E7
100
AcDbEntity
  8
0
100
AcDbBlockEnd
  0
BLOCK
  5
2F4
330
2F3
100
AcDbEntity
  8
0
100
AcDbBlockBegin
  2
*D24
 70
    65
 10
0.0
 20
0.0
  0
LINE
  5
2F5
330
2F3
100
AcDbEntity
  8
0
  6
CONTINUOUS
370
     0
 62
     1
100
AcDbLine
 10
47.02096939086914
 20
19.73575973510742
 11
90.0
 21
40.0
  0
LINE
  5
2F6
330
2F3
100
AcDbEntity
  8
0
  6
CONTINUOUS
370
     0
 62
     1
100
AcDbLine
 10
90.0
 20
40.0
 11
185.375
 21
40.0
  0
LINE
  5
2F7
330
2F3
100
AcDbEntity
  8
0
  6
CONTINUOUS
370
     0
 62
     1
100
AcDbLine
 10
53.09274291992188
 20
20.91200828552246
 11
47.02096939086914
 21
19.73575973510742
  0
LINE
  5
2F8
330
2F3
100
AcDbEntity
  8
0
  6
CONTINUOUS
370
     0
 62
     1
100
AcDbLine
 10
47.02096939086914
 20
19.73575973510742
 11
51.82489013671875
 21
23.63093185424805
  0
TEXT
  5
2F9
330
2F3
100
AcDbEntity
  8
0
  6
CONTINUOUS
370
     0
 62
     1
100
AcDbText
 10
91.0
 20
48.5
 30
0.0
 40
6.0
 41
0.6631578947368421
 50
0.0
 51
0.0
  7
BIGFONT
 72
     0
  1
８－Ｍ１０　Ｐ．Ｃ．Ｄ．９２　周上８等配
100
AcDbText
  0
TEXT
  5
2FA
330
2F3
100
AcDbEntity
  8
0
  6
CONTINUOUS
370
     0
 62
     1
100
AcDbText
 10
91.0
 20
41.0
 30
0.0
 40
6.0
 41
0.9064327485380117
 50
0.0
 51
0.0
  7
BIGFONT
 72
     0
  1
（表面フランジ部）
100
AcDbText
  0
POINT
  5
2FB
100
AcDbEntity
  8
DEFPOINTS
  6
BYBLOCK
 62
     0
100
AcDbPoint
 10
37.9759366275344
 20
15.4711065346762
  0
POINT
  5
2FC
100
AcDbEntity
  8
DEFPOINTS
  6
BYBLOCK
 62
     0
100
AcDbPoint
 10
47.0209741891444
 20
19.7357630869749
  0
ENDBLK
  5
2FD
330
2F3
100
AcDbEntity
  8
0
100
AcDbBlockEnd
  0
BLOCK
  5
300
330
2FF
100
AcDbEntity
  8
0
100
AcDbBlockBegin
  2
*D25
 70
    65
 10
0.0
 20
0.0
  0
LINE
  5
301
330
2FF
100
AcDbEntity
  8
0
  6
CONTINUOUS
370
     0
 62
     1
100
AcDbLine
 10
-33.84305953979492
 20
37.60924911499023
 11
-50.0
 21
100.0
  0
LINE
  5
302
330
2FF
100
AcDbEntity
  8
0
  6
CONTINUOUS
370
     0
 62
     1
100
AcDbLine
 10
-50.0
 20
100.0
 11
-153.625
 21
99.99999237060547
  0
LINE
  5
303
330
2FF
100
AcDbEntity
  8
0
  6
CONTINUOUS
370
     0
 62
     1
100
AcDbLine
 10
-33.94708251953125
 20
43.79303359985352
 11
-33.84305953979492
 21
37.60924911499023
  0
LINE
  5
304
330
2FF
100
AcDbEntity
  8
0
  6
CONTINUOUS
370
     0
 62
     1
100
AcDbLine
 10
-33.84305953979492
 20
37.60924911499023
 11
-36.8448600769043
 21
43.01657867431641
  0
TEXT
  5
305
330
2FF
100
AcDbEntity
  8
0
  6
CONTINUOUS
370
     0
 62
     1
100
AcDbText
 10
-152.625
 20
108.5
 30
0.0
 40
6.0
 41
0.6555023923444976
 50
0.0
 51
0.0
  7
BIGFONT
 72
     0
  1
８－φ１０．５　Ｐ．Ｃ．Ｄ．９２　周上８等配
100
AcDbText
  0
TEXT
  5
306
330
2FF
100
AcDbEntity
  8
0
  6
CONTINUOUS
370
     0
 62
     1
100
AcDbText
 10
-152.625
 20
101.0
 30
0.0
 40
6.0
 41
0.9064327485380117
 50
0.0
 51
0.0
  7
BIGFONT
 72
     0
  1
（裏側フランジ部）
100
AcDbText
  0
POINT
  5
307
100
AcDbEntity
  8
DEFPOINTS
  6
BYBLOCK
 62
     0
100
AcDbPoint
 10
-31.2107728750764
 20
27.4445564134736
  0
POINT
  5
308
100
AcDbEntity
  8
DEFPOINTS
  6
BYBLOCK
 62
     0
100
AcDbPoint
 10
-33.8430605170349
 20
37.6092532495821
  0
ENDBLK
  5
309
330
2FF
100
AcDbEntity
  8
0
100
AcDbBlockEnd
  0
BLOCK
  5
31D
330
31C
100
AcDbEntity
  8
0
100
AcDbBlockBegin
  2
*D26
 70
    65
 10
0.0
 20
0.0
  0
LINE
  5
31E
330
31C
100
AcDbEntity
  8
0
  6
CONTINUOUS
370
     0
 62
     1
100
AcDbLine
 10
429.5
 20
10.0
 11
406.25
 21
10.0
  0
LINE
  5
31F
330
31C
100
AcDbEntity
  8
0
  6
CONTINUOUS
370
     0
 62
     1
100
AcDbLine
 10
423.5
 20
11.50000381469727
 11
429.5
 21
10.0
  0
LINE
  5
320
330
31C
100
AcDbEntity
  8
0
  6
CONTINUOUS
370
     0
 62
     1
100
AcDbLine
 10
429.5
 20
10.0
 11
423.5
 21
8.500003814697266
  0
LINE
  5
321
330
31C
100
AcDbEntity
  8
0
  6
CONTINUOUS
370
     0
 62
     1
100
AcDbLine
 10
429.5
 20
10.0
 11
430.75
 21
10.0
  0
LINE
  5
322
330
31C
100
AcDbEntity
  8
0
  6
CONTINUOUS
370
     0
 62
     1
100
AcDbLine
 10
432.0
 20
10.0
 11
430.75
 21
10.0
  0
LINE
  5
323
330
31C
100
AcDbEntity
  8
0
  6
CONTINUOUS
370
     0
 62
     1
100
AcDbLine
 10
432.0
 20
10.0
 11
442.0
 21
10.0
  0
LINE
  5
324
330
31C
100
AcDbEntity
  8
0
  6
CONTINUOUS
370
     0
 62
     1
100
AcDbLine
 10
438.0
 20
8.5
 11
432.0
 21
10.0
  0
LINE
  5
325
330
31C
100
AcDbEntity
  8
0
  6
CONTINUOUS
370
     0
 62
     1
100
AcDbLine
 10
432.0
 20
10.0
 11
438.0
 21
11.5
  0
LINE
  5
326
330
31C
100
AcDbEntity
  8
0
  6
CONTINUOUS
370
     0
 62
     1
100
AcDbLine
 10
429.5
 20
3.0
 11
429.5
 21
14.0
  0
LINE
  5
327
330
31C
100
AcDbEntity
  8
0
  6
CONTINUOUS
370
     0
 62
     1
100
AcDbLine
 10
432.0
 20
3.0
 11
432.0
 21
14.0
  0
TEXT
  5
328
330
31C
100
AcDbEntity
  8
0
  6
CONTINUOUS
370
     0
 62
     1
100
AcDbText
 10
407.25
 20
11.0
 30
0.0
 40
6.0
 41
0.7236842105263159
 50
0.0
 51
0.0
  7
STANDARD
 72
     0
  1
2.5
100
AcDbText
  0
POINT
  5
329
330
31C
100
AcDbEntity
  8
DEFPOINTS
  6
BYBLOCK
 62
     0
100
AcDbPoint
 10
429.5
 20
0.0
  0
POINT
  5
32A
100
AcDbEntity
  8
DEFPOINTS
  6
BYBLOCK
 62
     0
100
AcDbPoint
 10
432.0
 20
0.0
  0
POINT
  5
32B
100
AcDbEntity
  8
DEFPOINTS
  6
BYBLOCK
 62
     0
100
AcDbPoint
 10
432.0
 20
10.0
  0
ENDBLK
  5
32C
330
31C
100
AcDbEntity
  8
0
100
AcDbBlockEnd
  0
BLOCK
  5
32F
330
32E
100
AcDbEntity
  8
0
100
AcDbBlockBegin
  2
*D27
 70
    65
 10
0.0
 20
0.0
  0
LINE
  5
330
330
32E
100
AcDbEntity
  8
0
  6
CONTINUOUS
370
     0
 62
     1
100
AcDbLine
 10
465.0
 20
10.0
 11
455.0
 21
10.0
  0
LINE
  5
331
330
32E
100
AcDbEntity
  8
0
  6
CONTINUOUS
370
     0
 62
     1
100
AcDbLine
 10
459.0
 20
11.50000381469727
 11
465.0
 21
10.0
  0
LINE
  5
332
330
32E
100
AcDbEntity
  8
0
  6
CONTINUOUS
370
     0
 62
     1
100
AcDbLine
 10
465.0
 20
10.0
 11
459.0
 21
8.500003814697266
  0
LINE
  5
333
330
32E
100
AcDbEntity
  8
0
  6
CONTINUOUS
370
     0
 62
     1
100
AcDbLine
 10
465.0
 20
10.0
 11
466.5
 21
10.0
  0
LINE
  5
334
330
32E
100
AcDbEntity
  8
0
  6
CONTINUOUS
370
     0
 62
     1
100
AcDbLine
 10
468.0
 20
10.0
 11
466.5
 21
10.0
  0
LINE
  5
335
330
32E
100
AcDbEntity
  8
0
  6
CONTINUOUS
370
     0
 62
     1
100
AcDbLine
 10
468.0
 20
10.0
 11
483.0
 21
10.0
  0
LINE
  5
336
330
32E
100
AcDbEntity
  8
0
  6
CONTINUOUS
370
     0
 62
     1
100
AcDbLine
 10
474.0
 20
8.5
 11
468.0
 21
10.0
  0
LINE
  5
337
330
32E
100
AcDbEntity
  8
0
  6
CONTINUOUS
370
     0
 62
     1
100
AcDbLine
 10
468.0
 20
10.0
 11
474.0
 21
11.5
  0
LINE
  5
338
330
32E
100
AcDbEntity
  8
0
  6
CONTINUOUS
370
     0
 62
     1
100
AcDbLine
 10
465.0
 20
3.0
 11
465.0
 21
14.0
  0
LINE
  5
339
330
32E
100
AcDbEntity
  8
0
  6
CONTINUOUS
370
     0
 62
     1
100
AcDbLine
 10
468.0
 20
3.0
 11
468.0
 21
14.0
  0
TEXT
  5
33A
330
32E
100
AcDbEntity
  8
0
  6
CONTINUOUS
370
     0
 62
     1
100
AcDbText
 10
479.0
 20
11.0
 30
0.0
 40
6.0
 41
0.7236842105263159
 50
0.0
 51
0.0
  7
STANDARD
 72
     0
  1
3
100
AcDbText
  0
POINT
  5
33B
330
32E
100
AcDbEntity
  8
DEFPOINTS
  6
BYBLOCK
 62
     0
100
AcDbPoint
 10
465.0
 20
0.0
  0
POINT
  5
33C
100
AcDbEntity
  8
DEFPOINTS
  6
BYBLOCK
 62
     0
100
AcDbPoint
 10
468.0
 20
0.0
  0
POINT
  5
33D
100
AcDbEntity
  8
DEFPOINTS
  6
BYBLOCK
 62
     0
100
AcDbPoint
 10
468.0
 20
10.0
  0
ENDBLK
  5
33E
330
32E
100
AcDbEntity
  8
0
100
AcDbBlockEnd
  0
BLOCK
  5
341
330
340
100
AcDbEntity
  8
0
100
AcDbBlockBegin
  2
*D28
 70
    65
 10
0.0
 20
0.0
  0
LINE
  5
342
330
340
100
AcDbEntity
  8
0
  6
CONTINUOUS
370
     0
 62
     1
100
AcDbLine
 10
500.0
 20
31.0
 11
500.0
 21
0.0
  0
LINE
  5
343
330
340
100
AcDbEntity
  8
0
  6
CONTINUOUS
370
     0
 62
     1
100
AcDbLine
 10
498.5
 20
25.00000190734863
 11
500.0
 21
31.0
  0
LINE
  5
344
330
340
100
AcDbEntity
  8
0
  6
CONTINUOUS
370
     0
 62
     1
100
AcDbLine
 10
500.0
 20
31.0
 11
501.5
 21
25.0
  0
LINE
  5
345
330
340
100
AcDbEntity
  8
0
  6
CONTINUOUS
370
     0
 62
     1
100
AcDbLine
 10
500.0
 20
-31.0
 11
500.0
 21
0.0
  0
LINE
  5
346
330
340
100
AcDbEntity
  8
0
  6
CONTINUOUS
370
     0
 62
     1
100
AcDbLine
 10
501.5
 20
-25.0
 11
500.0
 21
-31.0
  0
LINE
  5
347
330
340
100
AcDbEntity
  8
0
  6
CONTINUOUS
370
     0
 62
     1
100
AcDbLine
 10
500.0
 20
-31.0
 11
498.5
 21
-25.0
  0
LINE
  5
348
330
340
100
AcDbEntity
  8
0
  6
CONTINUOUS
370
     0
 62
     1
100
AcDbLine
 10
471.0
 20
31.0
 11
504.0
 21
31.0
  0
LINE
  5
349
330
340
100
AcDbEntity
  8
0
  6
CONTINUOUS
370
     0
 62
     1
100
AcDbLine
 10
471.0
 20
-31.0
 11
504.0
 21
-31.0
  0
TEXT
  5
34A
330
340
100
AcDbEntity
  8
0
  6
CONTINUOUS
370
     0
 62
     1
100
AcDbText
 10
496.5
 20
-25.15625
 30
0.0
 40
6.0
 41
0.7236842105263159
 50
90.0
 51
0.0
  7
STANDARD
 72
     0
  1
%%c62H5(
100
AcDbText
  0
TEXT
  5
34B
330
340
100
AcDbEntity
  8
0
  6
CONTINUOUS
370
     0
 62
     1
100
AcDbText
 10
493.0
 20
0.46875
 30
0.0
 40
5.0
 41
0.7236842105263159
 50
90.0
 51
0.0
  7
STANDARD
 72
     0
  1
+0.013
100
AcDbText
  0
TEXT
  5
34C
330
340
100
AcDbEntity
  8
0
  6
CONTINUOUS
370
     0
 62
     1
100
AcDbText
 10
499.0
 20
0.46875
 30
0.0
 40
5.0
 41
0.7236842105263158
 50
90.0
 51
0.0
  7
STANDARD
 72
     0
  1
 0
100
AcDbText
  0
TEXT
  5
34D
330
340
100
AcDbEntity
  8
0
  6
CONTINUOUS
370
     0
 62
     1
100
AcDbText
 10
496.5
 20
22.15625
 30
0.0
 40
6.0
 41
0.7236842105263159
 50
90.0
 51
0.0
  7
STANDARD
 72
     0
  1
)
100
AcDbText
  0
POINT
  5
34E
330
340
100
AcDbEntity
  8
DEFPOINTS
  6
BYBLOCK
 62
     0
100
AcDbPoint
 10
468.0
 20
31.0
  0
POINT
  5
34F
100
AcDbEntity
  8
DEFPOINTS
  6
BYBLOCK
 62
     0
100
AcDbPoint
 10
468.0
 20
-31.0
  0
POINT
  5
350
100
AcDbEntity
  8
DEFPOINTS
  6
BYBLOCK
 62
     0
100
AcDbPoint
 10
500.0
 20
-31.0
  0
ENDBLK
  5
351
330
340
100
AcDbEntity
  8
0
100
AcDbBlockEnd
  0
BLOCK
  5
354
330
353
100
AcDbEntity
  8
0
100
AcDbBlockBegin
  2
*D29
 70
    65
 10
0.0
 20
0.0
  0
LINE
  5
355
330
353
100
AcDbEntity
  8
0
  6
CONTINUOUS
370
     0
 62
     1
100
AcDbLine
 10
520.0
 20
55.5
 11
520.0
 21
0.0
  0
LINE
  5
356
330
353
100
AcDbEntity
  8
0
  6
CONTINUOUS
370
     0
 62
     1
100
AcDbLine
 10
518.5
 20
49.5
 11
520.0
 21
55.5
  0
LINE
  5
357
330
353
100
AcDbEntity
  8
0
  6
CONTINUOUS
370
     0
 62
     1
100
AcDbLine
 10
520.0
 20
55.5
 11
521.5
 21
49.49999618530273
  0
LINE
  5
358
330
353
100
AcDbEntity
  8
0
  6
CONTINUOUS
370
     0
 62
     1
100
AcDbLine
 10
520.0
 20
-55.5
 11
520.0
 21
0.0
  0
LINE
  5
359
330
353
100
AcDbEntity
  8
0
  6
CONTINUOUS
370
     0
 62
     1
100
AcDbLine
 10
521.5
 20
-49.5
 11
520.0
 21
-55.5
  0
LINE
  5
35A
330
353
100
AcDbEntity
  8
0
  6
CONTINUOUS
370
     0
 62
     1
100
AcDbLine
 10
520.0
 20
-55.5
 11
518.5
 21
-49.5
  0
LINE
  5
35B
330
353
100
AcDbEntity
  8
0
  6
CONTINUOUS
370
     0
 62
     1
100
AcDbLine
 10
471.0
 20
55.5
 11
524.0
 21
55.5
  0
LINE
  5
35C
330
353
100
AcDbEntity
  8
0
  6
CONTINUOUS
370
     0
 62
     1
100
AcDbLine
 10
471.0
 20
-55.5
 11
524.0
 21
-55.5
  0
TEXT
  5
35D
330
353
100
AcDbEntity
  8
0
  6
CONTINUOUS
370
     0
 62
     1
100
AcDbText
 10
519.0
 20
-7.6875
 30
0.0
 40
6.0
 41
0.7236842105263159
 50
90.0
 51
0.0
  7
STANDARD
 72
     0
  1
%%c111
100
AcDbText
  0
POINT
  5
35E
330
353
100
AcDbEntity
  8
DEFPOINTS
  6
BYBLOCK
 62
     0
100
AcDbPoint
 10
468.0
 20
55.5
  0
POINT
  5
35F
100
AcDbEntity
  8
DEFPOINTS
  6
BYBLOCK
 62
     0
100
AcDbPoint
 10
468.0
 20
-55.5
  0
POINT
  5
360
100
AcDbEntity
  8
DEFPOINTS
  6
BYBLOCK
 62
     0
100
AcDbPoint
 10
520.0
 20
-55.5
  0
ENDBLK
  5
361
330
353
100
AcDbEntity
  8
0
100
AcDbBlockEnd
  0
BLOCK
  5
364
330
363
100
AcDbEntity
  8
0
100
AcDbBlockBegin
  2
*D30
 70
    65
 10
0.0
 20
0.0
  0
LINE
  5
365
330
363
100
AcDbEntity
  8
0
  6
CONTINUOUS
370
     0
 62
     1
100
AcDbLine
 10
500.0
 20
-55.5
 11
500.0
 21
-45.5
  0
LINE
  5
366
330
363
100
AcDbEntity
  8
0
  6
CONTINUOUS
370
     0
 62
     1
100
AcDbLine
 10
501.5
 20
-49.5
 11
500.0
 21
-55.5
  0
LINE
  5
367
330
363
100
AcDbEntity
  8
0
  6
CONTINUOUS
370
     0
 62
     1
100
AcDbLine
 10
500.0
 20
-55.5
 11
498.5
 21
-49.5
  0
LINE
  5
368
330
363
100
AcDbEntity
  8
0
  6
CONTINUOUS
370
     0
 62
     1
100
AcDbLine
 10
500.0
 20
-55.5
 11
500.0
 21
-57.0
  0
LINE
  5
369
330
363
100
AcDbEntity
  8
0
  6
CONTINUOUS
370
     0
 62
     1
100
AcDbLine
 10
500.0
 20
-58.5
 11
500.0
 21
-57.0
  0
LINE
  5
36A
330
363
100
AcDbEntity
  8
0
  6
CONTINUOUS
370
     0
 62
     1
100
AcDbLine
 10
500.0
 20
-58.5
 11
500.0
 21
-73.5
  0
LINE
  5
36B
330
363
100
AcDbEntity
  8
0
  6
CONTINUOUS
370
     0
 62
     1
100
AcDbLine
 10
498.5
 20
-64.5
 11
500.0
 21
-58.5
  0
LINE
  5
36C
330
363
100
AcDbEntity
  8
0
  6
CONTINUOUS
370
     0
 62
     1
100
AcDbLine
 10
500.0
 20
-58.5
 11
501.5
 21
-64.5
  0
LINE
  5
36D
330
363
100
AcDbEntity
  8
0
  6
CONTINUOUS
370
     0
 62
     1
100
AcDbLine
 10
471.0
 20
-55.5
 11
504.0
 21
-55.5
  0
LINE
  5
36E
330
363
100
AcDbEntity
  8
0
  6
CONTINUOUS
370
     0
 62
     1
100
AcDbLine
 10
482.0
 20
-58.5
 11
504.0
 21
-58.5
  0
TEXT
  5
36F
330
363
100
AcDbEntity
  8
0
  6
CONTINUOUS
370
     0
 62
     1
100
AcDbText
 10
499.0
 20
-72.5
 30
0.0
 40
6.0
 41
0.7236842105263159
 50
90.0
 51
0.0
  7
STANDARD
 72
     0
  1
3
100
AcDbText
  0
POINT
  5
370
330
363
100
AcDbEntity
  8
DEFPOINTS
  6
BYBLOCK
 62
     0
100
AcDbPoint
 10
468.0
 20
-55.5
  0
POINT
  5
371
100
AcDbEntity
  8
DEFPOINTS
  6
BYBLOCK
 62
     0
100
AcDbPoint
 10
479.0
 20
-58.5
  0
POINT
  5
372
100
AcDbEntity
  8
DEFPOINTS
  6
BYBLOCK
 62
     0
100
AcDbPoint
 10
500.0
 20
-58.5
  0
ENDBLK
  5
373
330
363
100
AcDbEntity
  8
0
100
AcDbBlockEnd
  0
BLOCK
  5
380
330
37F
100
AcDbEntity
  8
0
100
AcDbBlockBegin
  2
*D31
 70
    65
 10
0.0
 20
0.0
  0
LINE
  5
381
330
37F
100
AcDbEntity
  8
0
  6
CONTINUOUS
370
     0
 62
     1
100
AcDbLine
 10
-75.99500274658203
 20
15.19900035858154
 11
-108.518798828125
 21
21.70376014709473
  0
LINE
  5
382
330
37F
100
AcDbEntity
  8
0
  6
CONTINUOUS
370
     0
 62
     1
100
AcDbLine
 10
-75.99500274658203
 20
15.19900035858154
 11
9.169775125883461E-007
 21
-6.705523247774181E-008
  0
LINE
  5
383
330
37F
100
AcDbEntity
  8
0
  6
CONTINUOUS
370
     0
 62
     1
100
AcDbLine
 10
-70.39145660400391
 20
12.58169841766357
 11
-75.99500274658203
 21
15.19900035858154
  0
LINE
  5
384
330
37F
100
AcDbEntity
  8
0
  6
CONTINUOUS
370
     0
 62
     1
100
AcDbLine
 10
-75.99500274658203
 20
15.19900035858154
 11
-69.81902313232422
 21
15.52657890319824
  0
LINE
  5
385
330
37F
100
AcDbEntity
  8
0
  6
CONTINUOUS
370
     0
 62
     1
100
AcDbLine
 10
75.99500274658203
 20
-15.19900035858154
 11
-9.169775125883461E-007
 21
6.705523247774181E-008
  0
LINE
  5
386
330
37F
100
AcDbEntity
  8
0
  6
CONTINUOUS
370
     0
 62
     1
100
AcDbLine
 10
70.39145660400391
 20
-12.58170223236084
 11
75.99500274658203
 21
-15.19900035858154
  0
LINE
  5
387
330
37F
100
AcDbEntity
  8
0
  6
CONTINUOUS
370
     0
 62
     1
100
AcDbLine
 10
75.99500274658203
 20
-15.19900035858154
 11
69.81903076171875
 21
-15.52658367156982
  0
TEXT
  5
388
330
37F
100
AcDbEntity
  8
0
  6
CONTINUOUS
370
     0
 62
     1
100
AcDbText
 10
-107.3554000854492
 20
22.44846916198731
 30
0.0
 40
6.0
 41
0.7236842105263159
 50
349.0
 51
0.0
  7
STANDARD
 72
     0
  1
%%c155
100
AcDbText
  0
POINT
  5
389
100
AcDbEntity
  8
DEFPOINTS
  6
BYBLOCK
 62
     0
100
AcDbPoint
 10
75.99500236604629
 20
-15.1990004732093
  0
POINT
  5
38A
100
AcDbEntity
  8
DEFPOINTS
  6
BYBLOCK
 62
     0
100
AcDbPoint
 10
-75.99500236604629
 20
15.1990004732093
  0
ENDBLK
  5
38B
330
37F
100
AcDbEntity
  8
0
100
AcDbBlockEnd
  0
BLOCK
  5
399
330
398
100
AcDbEntity
  8
0
100
AcDbBlockBegin
  2
*D32
 70
    65
 10
0.0
 20
0.0
  0
LINE
  5
39A
330
398
100
AcDbEntity
  8
0
  6
CONTINUOUS
370
     0
 62
     1
100
AcDbLine
 10
400.0
 20
60.5
 11
400.0
 21
50.5
  0
LINE
  5
39B
330
398
100
AcDbEntity
  8
0
  6
CONTINUOUS
370
     0
 62
     1
100
AcDbLine
 10
398.5
 20
54.5
 11
400.0
 21
60.5
  0
LINE
  5
39C
330
398
100
AcDbEntity
  8
0
  6
CONTINUOUS
370
     0
 62
     1
100
AcDbLine
 10
400.0
 20
60.5
 11
401.5
 21
54.49999618530273
  0
LINE
  5
39D
330
398
100
AcDbEntity
  8
0
  6
CONTINUOUS
370
     0
 62
     1
100
AcDbLine
 10
400.0
 20
60.5
 11
400.0
 21
63.5
  0
LINE
  5
39E
330
398
100
AcDbEntity
  8
0
  6
CONTINUOUS
370
     0
 62
     1
100
AcDbLine
 10
400.0
 20
66.5
 11
400.0
 21
63.5
  0
LINE
  5
39F
330
398
100
AcDbEntity
  8
0
  6
CONTINUOUS
370
     0
 62
     1
100
AcDbLine
 10
400.0
 20
66.5
 11
400.0
 21
76.5
  0
LINE
  5
3A0
330
398
100
AcDbEntity
  8
0
  6
CONTINUOUS
370
     0
 62
     1
100
AcDbLine
 10
401.5
 20
72.5
 11
400.0
 21
66.5
  0
LINE
  5
3A1
330
398
100
AcDbEntity
  8
0
  6
CONTINUOUS
370
     0
 62
     1
100
AcDbLine
 10
400.0
 20
66.5
 11
398.5
 21
72.5
  0
LINE
  5
3A2
330
398
100
AcDbEntity
  8
0
  6
CONTINUOUS
370
     0
 62
     1
100
AcDbLine
 10
429.5
 20
60.5
 11
396.0
 21
60.5
  0
LINE
  5
3A3
330
398
100
AcDbEntity
  8
0
  6
CONTINUOUS
370
     0
 62
     1
100
AcDbLine
 10
429.0
 20
66.5
 11
396.0
 21
66.5
  0
TEXT
  5
3A4
330
398
100
AcDbEntity
  8
0
  6
CONTINUOUS
370
     0
 62
     1
100
AcDbText
 10
399.0
 20
62.0
 30
0.0
 40
6.0
 41
0.7236842105263159
 50
90.0
 51
0.0
  7
STANDARD
 72
     0
  1
6
100
AcDbText
  0
POINT
  5
3A5
330
398
100
AcDbEntity
  8
DEFPOINTS
  6
BYBLOCK
 62
     0
100
AcDbPoint
 10
432.5
 20
60.5
  0
POINT
  5
3A6
100
AcDbEntity
  8
DEFPOINTS
  6
BYBLOCK
 62
     0
100
AcDbPoint
 10
432.0
 20
66.5
  0
POINT
  5
3A7
100
AcDbEntity
  8
DEFPOINTS
  6
BYBLOCK
 62
     0
100
AcDbPoint
 10
400.0
 20
66.5
  0
ENDBLK
  5
3A8
330
398
100
AcDbEntity
  8
0
100
AcDbBlockEnd
  0
BLOCK
  5
311
330
30E
100
AcDbEntity
  8
0
100
AcDbBlockBegin
  2
LDR1
 70
    64
 10
0.0
 20
0.0
  0
TEXT
  5
312
330
30E
100
AcDbEntity
  8
0
  6
CONTINUOUS
370
     0
 62
     1
100
AcDbText
 10
-86.5
 20
8.5
 40
6.0
 41
0.9352226720647774
 50
0.0
 51
0.0
  7
BIGFONT
 72
     2
 11
-1.0
 21
8.5
  1
トルク信号取出し口　２箇所
100
AcDbText
  0
TEXT
  5
313
330
30E
100
AcDbEntity
  8
0
  6
CONTINUOUS
370
     0
 62
     1
100
AcDbText
 10
-86.5
 20
1.0
 40
6.0
 41
0.902834008097166
 50
0.0
 51
0.0
  7
BIGFONT
 72
     2
 11
-4.0
 21
1.0
  1
（１方向からのみ取出し可）
100
AcDbText
  0
LINE
  5
314
330
30E
100
AcDbEntity
  8
0
  6
CONTINUOUS
370
     0
 62
     1
100
AcDbLine
 10
0.0
 20
0.0
 11
-87.5
 21
0.0
  0
ENDBLK
  5
315
330
30E
100
AcDbEntity
  8
0
100
AcDbBlockEnd
  0
BLOCK
  5
378
330
375
100
AcDbEntity
  8
0
100
AcDbBlockBegin
  2
LDR2
 70
    64
 10
0.0
 20
0.0
  0
TEXT
  5
379
330
375
100
AcDbEntity
  8
0
  6
CONTINUOUS
370
     0
 62
     1
100
AcDbText
 10
1.0
 20
8.5
 40
6.0
 41
0.7236842105263158
 50
0.0
 51
0.0
  7
STANDARD
  1
2-25 x 10
100
AcDbText
  0
TEXT
  5
37A
330
375
100
AcDbEntity
  8
0
  6
CONTINUOUS
370
     0
 62
     1
100
AcDbText
 10
1.0
 20
1.0
 40
6.0
 41
1.0
 50
0.0
 51
0.0
  7
BIGFONT
  1
長穴
100
AcDbText
  0
LINE
  5
37B
330
375
100
AcDbEntity
  8
0
  6
CONTINUOUS
370
     0
 62
     1
100
AcDbLine
 10
0.0
 20
0.0
 11
38.0
 21
0.0
  0
ENDBLK
  5
37C
330
375
100
AcDbEntity
  8
0
100
AcDbBlockEnd
  0
BLOCK
  5
390
330
38D
100
AcDbEntity
  8
0
100
AcDbBlockBegin
  2
LDR3
 70
    64
 10
0.0
 20
0.0
  0
TEXT
  5
391
330
38D
100
AcDbEntity
  8
0
  6
CONTINUOUS
370
     0
 62
     1
100
AcDbText
 10
1.0
 20
8.5
 40
6.0
 41
1.0
 50
0.0
 51
0.0
  7
BIGFONT
 72
     2
 11
71.125
 21
8.5
  1
ローター、ステーター
100
AcDbText
  0
TEXT
  5
392
330
38D
100
AcDbEntity
  8
0
  6
CONTINUOUS
370
     0
 62
     1
100
AcDbText
 10
1.0
 20
1.0
 40
6.0
 41
1.0
 50
0.0
 51
0.0
  7
BIGFONT
 72
     2
 11
42.625
 21
1.0
  1
位置合わせ面
100
AcDbText
  0
ENDBLK
  5
393
330
38D
100
AcDbEntity
  8
0
100
AcDbBlockEnd
  0
ENDSEC
  0
SECTION
  2
ENTITIES
  0
CIRCLE
  5
24
330
20
100
AcDbEntity
  8
0
  6
CONTINUOUS
370
     0
 62
     1
100
AcDbCircle
 10
0.0
 20
0.0
 40
36.0
  0
CIRCLE
  5
25
330
20
100
AcDbEntity
  8
0
  6
CONTINUOUS
370
     0
 62
     1
100
AcDbCircle
 10
0.0
 20
0.0
 40
33.0
  0
CIRCLE
  5
26
330
20
100
AcDbEntity
  8
0
  6
CONTINUOUS
370
     0
 62
     1
100
AcDbCircle
 10
0.0
 20
0.0
 40
31.0
  0
CIRCLE
  5
27
330
20
100
AcDbEntity
  8
0
  6
CONTINUOUS
370
     0
 62
     1
100
AcDbCircle
 10
0.0
 20
0.0
 40
27.5
  0
LINE
  5
28
330
20
100
AcDbEntity
  8
0
  6
CONTINUOUS
370
     0
 62
     1
100
AcDbLine
 10
52.0
 20
-87.5
 11
52.0
 21
-61.7434207021283
  0
LINE
  5
29
330
20
100
AcDbEntity
  8
0
  6
CONTINUOUS
370
     0
 62
     1
100
AcDbLine
 10
-52.0
 20
-87.5
 11
-52.0
 21
-61.7434207021283
  0
LINE
  5
2A
330
20
100
AcDbEntity
  8
0
  6
CONTINUOUS
370
     0
 62
     1
100
AcDbLine
 10
40.0
 20
-88.5
 11
40.0
 21
-67.0
  0
LINE
  5
2B
330
20
100
AcDbEntity
  8
0
  6
CONTINUOUS
370
     0
 62
     1
100
AcDbLine
 10
-40.0
 20
-88.5
 11
-40.0
 21
-67.0
  0
LINE
  5
2C
330
20
100
AcDbEntity
  8
0
  6
CONTINUOUS
370
     0
 62
     1
100
AcDbLine
 10
-41.75
 20
-67.0
 11
-40.0
 21
-67.0
  0
LINE
  5
2D
330
20
100
AcDbEntity
  8
0
  6
CONTINUOUS
370
     0
 62
     1
100
AcDbLine
 10
40.0
 20
-67.0
 11
41.75
 21
-67.0
  0
LINE
  5
2E
330
20
100
AcDbEntity
  8
0
  6
CONTINUOUS
370
     0
 62
     1
100
AcDbLine
 10
-52.0
 20
-87.5
 11
-40.0
 21
-87.5
  0
LINE
  5
2F
330
20
100
AcDbEntity
  8
0
  6
CONTINUOUS
370
     0
 62
     1
100
AcDbLine
 10
40.0
 20
-87.5
 11
52.0
 21
-87.5
  0
LINE
  5
30
330
20
100
AcDbEntity
  8
0
  6
CONTINUOUS
370
     0
 62
     1
100
AcDbLine
 10
0.0
 20
77.5
 11
0.0
 21
66.5
  0
LINE
  5
31
330
20
100
AcDbEntity
  8
0
  6
CONTINUOUS
370
     0
 62
     1
100
AcDbLine
 10
-41.75
 20
-64.5
 11
-1.5
 21
-64.5
  0
LINE
  5
32
330
20
100
AcDbEntity
  8
0
  6
CONTINUOUS
370
     0
 62
     1
100
AcDbLine
 10
1.5
 20
-64.5
 11
41.75
 21
-64.5
  0
ARC
  5
33
330
20
100
AcDbEntity
  8
0
  6
CONTINUOUS
370
     0
 62
     1
100
AcDbCircle
 10
-41.75
 20
-65.75
 40
1.25
100
AcDbArc
 50
90.0
 51
180.0
  0
ARC
  5
34
330
20
100
AcDbEntity
  8
0
  6
CONTINUOUS
370
     0
 62
     1
100
AcDbCircle
 10
-41.75
 20
-65.75
 40
1.25
100
AcDbArc
 50
180.0
 51
270.0
  0
ARC
  5
35
330
20
100
AcDbEntity
  8
0
  6
CONTINUOUS
370
     0
 62
     1
100
AcDbCircle
 10
41.75
 20
-65.75
 40
1.25
100
AcDbArc
 50
270.0
 51
0.0
  0
ARC
  5
36
330
20
100
AcDbEntity
  8
0
  6
CONTINUOUS
370
     0
 62
     1
100
AcDbCircle
 10
41.75
 20
-65.75
 40
1.25
100
AcDbArc
 50
0.0
 51
90.0
  0
LINE
  5
37
330
20
100
AcDbEntity
  8
0
  6
CONTINUOUS
370
     0
 62
     1
100
AcDbLine
 10
318.0
 20
55.5
 11
318.0
 21
-55.5
  0
LINE
  5
38
330
20
100
AcDbEntity
  8
0
  6
CENTER
370
     0
 62
     1
100
AcDbLine
 10
274.5
 20
0.0
 11
323.0
 21
0.0
  0
LINE
  5
39
330
20
100
AcDbEntity
  8
0
  6
CONTINUOUS
370
     0
 62
     1
100
AcDbLine
 10
-75.0
 20
-88.5
 11
75.0
 21
-88.5
  0
LINE
  5
3A
330
20
100
AcDbEntity
  8
0
  6
CONTINUOUS
370
     0
 62
     1
100
AcDbLine
 10
-1.5
 20
-88.5
 11
-1.5
 21
-64.5
  0
LINE
  5
3B
330
20
100
AcDbEntity
  8
0
  6
CONTINUOUS
370
     0
 62
     1
100
AcDbLine
 10
1.5
 20
-88.5
 11
1.5
 21
-64.5
  0
LINE
  5
3C
330
20
100
AcDbEntity
  8
0
  6
CONTINUOUS
370
     0
 62
     1
100
AcDbLine
 10
-22.5
 20
-88.5
 11
-22.5
 21
-64.5
  0
LINE
  5
3D
330
20
100
AcDbEntity
  8
0
  6
CONTINUOUS
370
     0
 62
     1
100
AcDbLine
 10
22.5
 20
-88.5
 11
22.5
 21
-64.5
  0
LINE
  5
3E
330
20
100
AcDbEntity
  8
0
  6
CONTINUOUS
370
     0
 62
     1
100
AcDbLine
 10
-75.0
 20
-98.5
 11
75.0
 21
-98.5
  0
LINE
  5
3F
330
20
100
AcDbEntity
  8
0
  6
CONTINUOUS
370
     0
 62
     1
100
AcDbLine
 10
75.0
 20
-143.5
 11
75.0
 21
-59.5
  0
LINE
  5
40
330
20
100
AcDbEntity
  8
0
  6
CONTINUOUS
370
     0
 62
     1
100
AcDbLine
 10
-75.0
 20
-143.5
 11
-75.0
 21
-59.5
  0
LINE
  5
41
330
20
100
AcDbEntity
  8
0
  6
CONTINUOUS
370
     0
 62
     1
100
AcDbLine
 10
299.0
 20
77.5
 11
299.0
 21
-98.5
  0
LINE
  5
42
330
20
100
AcDbEntity
  8
0
  6
CONTINUOUS
370
     0
 62
     1
100
AcDbLine
 10
271.0
 20
-88.5
 11
299.0
 21
-88.5
  0
LINE
  5
43
330
20
100
AcDbEntity
  8
0
  6
CONTINUOUS
370
     0
 62
     1
100
AcDbLine
 10
271.0
 20
-98.5
 11
300.0
 21
-98.5
  0
LINE
  5
44
330
20
100
AcDbEntity
  8
0
  6
CONTINUOUS
370
     0
 62
     1
100
AcDbLine
 10
271.0
 20
-88.5
 11
271.0
 21
-153.5
  0
LINE
  5
45
330
20
100
AcDbEntity
  8
0
  6
CONTINUOUS
370
     0
 62
     1
100
AcDbLine
 10
271.0
 20
-153.5
 11
329.0
 21
-153.5
  0
LINE
  5
46
330
20
100
AcDbEntity
  8
0
  6
CONTINUOUS
370
     0
 62
     1
100
AcDbLine
 10
329.0
 20
-58.5
 11
329.0
 21
-153.5
  0
LINE
  5
47
330
20
100
AcDbEntity
  8
0
  6
CONTINUOUS
370
     0
 62
     1
100
AcDbLine
 10
300.0
 20
-71.0
 11
329.0
 21
-71.0
  0
LINE
  5
48
330
20
100
AcDbEntity
  8
0
  6
CONTINUOUS
370
     0
 62
     1
100
AcDbLine
 10
300.0
 20
-58.5
 11
300.0
 21
-98.5
  0
LINE
  5
49
330
20
100
AcDbEntity
  8
0
  6
CONTINUOUS
370
     0
 62
     1
100
AcDbLine
 10
271.0
 20
-143.5
 11
329.0
 21
-143.5
  0
LINE
  5
4A
330
20
100
AcDbEntity
  8
0
  6
CONTINUOUS
370
     0
 62
     1
100
AcDbLine
 10
105.0
 20
-153.5
 11
105.0
 21
-143.5
  0
LINE
  5
4B
330
20
100
AcDbEntity
  8
0
  6
CONTINUOUS
370
     0
 62
     1
100
AcDbLine
 10
-105.0
 20
-153.5
 11
-105.0
 21
-143.5
  0
LINE
  5
4C
330
20
100
AcDbEntity
  8
0
  6
CONTINUOUS
370
     0
 62
     1
100
AcDbLine
 10
-105.0
 20
-153.5
 11
105.0
 21
-153.5
  0
LINE
  5
4D
330
20
100
AcDbEntity
  8
0
  6
CONTINUOUS
370
     0
 62
     1
100
AcDbLine
 10
-105.0
 20
-143.5
 11
-75.0
 21
-143.5
  0
LINE
  5
4E
330
20
100
AcDbEntity
  8
0
  6
CONTINUOUS
370
     0
 62
     1
100
AcDbLine
 10
75.0
 20
-143.5
 11
105.0
 21
-143.5
  0
LINE
  5
4F
330
20
100
AcDbEntity
  8
0
  6
CONTINUOUS
370
     0
 62
     1
100
AcDbLine
 10
74.5
 20
-71.0
 11
75.0
 21
-71.0
  0
LINE
  5
50
330
20
100
AcDbEntity
  8
0
  6
CONTINUOUS
370
     0
 62
     1
100
AcDbLine
 10
300.0
 20
-58.5
 11
329.0
 21
-58.5
  0
LINE
  5
51
330
20
100
AcDbEntity
  8
0
  6
CONTINUOUS
370
     0
 62
     1
100
AcDbLine
 10
300.0
 20
-68.0
 11
329.0
 21
-68.0
  0
LINE
  5
52
330
20
100
AcDbEntity
  8
0
  6
CONTINUOUS
370
     0
 62
     1
100
AcDbLine
 10
76.0
 20
-68.0
 11
76.0
 21
-58.5
  0
LINE
  5
53
330
20
100
AcDbEntity
  8
0
  6
CONTINUOUS
370
     0
 62
     1
100
AcDbLine
 10
-76.0
 20
-68.0
 11
-76.0
 21
-58.5
  0
LINE
  5
54
330
20
100
AcDbEntity
  8
0
  6
CONTINUOUS
370
     0
 62
     1
100
AcDbLine
 10
-76.0
 20
-68.0
 11
-75.0
 21
-68.0
  0
LINE
  5
55
330
20
100
AcDbEntity
  8
0
  6
CONTINUOUS
370
     0
 62
     1
100
AcDbLine
 10
75.0
 20
-68.0
 11
76.0
 21
-68.0
  0
LINE
  5
56
330
20
100
AcDbEntity
  8
0
  6
CONTINUOUS
370
     0
 62
     1
100
AcDbLine
 10
282.0
 20
-87.5
 11
299.0
 21
-87.5
  0
LINE
  5
57
330
20
100
AcDbEntity
  8
0
  6
CONTINUOUS
370
     0
 62
     1
100
AcDbLine
 10
275.5
 20
-103.5
 11
301.5
 21
-103.5
  0
LINE
  5
58
330
20
100
AcDbEntity
  8
0
  6
CONTINUOUS
370
     0
 62
     1
100
AcDbLine
 10
275.5
 20
-133.5
 11
301.5
 21
-133.5
  0
LINE
  5
59
330
20
100
AcDbEntity
  8
0
  6
CONTINUOUS
370
     0
 62
     1
100
AcDbLine
 10
273.5
 20
-105.5
 11
273.5
 21
-131.5
  0
LINE
  5
5A
330
20
100
AcDbEntity
  8
0
  6
CONTINUOUS
370
     0
 62
     1
100
AcDbLine
 10
303.5
 20
-105.5
 11
303.5
 21
-131.5
  0
CIRCLE
  5
5B
330
20
100
AcDbEntity
  8
0
  6
CONTINUOUS
370
     0
 62
     1
100
AcDbCircle
 10
288.5
 20
-118.5
 40
12.0
  0
CIRCLE
  5
5C
330
20
100
AcDbEntity
  8
0
  6
CONTINUOUS
370
     0
 62
     1
100
AcDbCircle
 10
288.5
 20
-118.5
 40
10.0
  0
LINE
  5
5D
330
20
100
AcDbEntity
  8
0
  6
CONTINUOUS
370
     0
 62
     1
100
AcDbLine
 10
273.5
 20
-105.5
 11
275.5
 21
-103.5
  0
LINE
  5
5E
330
20
100
AcDbEntity
  8
0
  6
CONTINUOUS
370
     0
 62
     1
100
AcDbLine
 10
301.5
 20
-103.5
 11
303.5
 21
-105.5
  0
LINE
  5
5F
330
20
100
AcDbEntity
  8
0
  6
CONTINUOUS
370
     0
 62
     1
100
AcDbLine
 10
303.5
 20
-131.5
 11
301.5
 21
-133.5
  0
LINE
  5
60
330
20
100
AcDbEntity
  8
0
  6
CONTINUOUS
370
     0
 62
     1
100
AcDbLine
 10
275.5
 20
-133.5
 11
273.5
 21
-131.5
  0
LINE
  5
61
330
20
100
AcDbEntity
  8
0
  6
CONTINUOUS
370
     0
 62
     1
100
AcDbLine
 10
88.0
 20
-118.5
 11
88.0
 21
-130.5
  0
LINE
  5
62
330
20
100
AcDbEntity
  8
0
  6
CONTINUOUS
370
     0
 62
     1
100
AcDbLine
 10
88.0
 20
-130.5
 11
77.0
 21
-130.5
  0
LINE
  5
63
330
20
100
AcDbEntity
  8
0
  6
CONTINUOUS
370
     0
 62
     1
100
AcDbLine
 10
88.0
 20
-143.500009299135
 11
80.0
 21
-143.500009299135
  0
LINE
  5
64
330
20
100
AcDbEntity
  8
0
  6
CONTINUOUS
370
     0
 62
     1
100
AcDbLine
 10
88.0
 20
-118.5
 11
88.0
 21
-106.5
  0
LINE
  5
65
330
20
100
AcDbEntity
  8
0
  6
CONTINUOUS
370
     0
 62
     1
100
AcDbLine
 10
88.0
 20
-107.5
 11
80.0
 21
-107.5
  0
LINE
  5
66
330
20
100
AcDbEntity
  8
0
  6
CONTINUOUS
370
     0
 62
     1
100
AcDbLine
 10
88.0
 20
-106.5
 11
77.0
 21
-106.5
  0
LINE
  5
67
330
20
100
AcDbEntity
  8
0
  6
CONTINUOUS
370
     0
 62
     1
100
AcDbLine
 10
80.0
 20
-118.5
 11
80.0
 21
-106.5
  0
LINE
  5
68
330
20
100
AcDbEntity
  8
0
  6
CONTINUOUS
370
     0
 62
     1
100
AcDbLine
 10
77.0
 20
-118.5
 11
77.0
 21
-103.5
  0
LINE
  5
69
330
20
100
AcDbEntity
  8
0
  6
CONTINUOUS
370
     0
 62
     1
100
AcDbLine
 10
77.0
 20
-103.5
 11
75.0
 21
-103.5
  0
LINE
  5
6A
330
20
100
AcDbEntity
  8
0
  6
CONTINUOUS
370
     0
 62
     1
100
AcDbLine
 10
80.0
 20
-118.5
 11
80.0
 21
-130.5
  0
LINE
  5
6B
330
20
100
AcDbEntity
  8
0
  6
CONTINUOUS
370
     0
 62
     1
100
AcDbLine
 10
77.0
 20
-118.5
 11
77.0
 21
-133.5
  0
LINE
  5
6C
330
20
100
AcDbEntity
  8
0
  6
CONTINUOUS
370
     0
 62
     1
100
AcDbLine
 10
77.0
 20
-133.5
 11
75.0
 21
-133.5
  0
LINE
  5
6D
330
20
100
AcDbEntity
  8
0
  6
CONTINUOUS
370
     0
 62
     1
100
AcDbLine
 10
-77.0
 20
-103.5
 11
-75.0
 21
-103.5
  0
LINE
  5
6E
330
20
100
AcDbEntity
  8
0
  6
CONTINUOUS
370
     0
 62
     1
100
AcDbLine
 10
-77.0
 20
-118.5
 11
-77.0
 21
-103.5
  0
LINE
  5
6F
330
20
100
AcDbEntity
  8
0
  6
CONTINUOUS
370
     0
 62
     1
100
AcDbLine
 10
-88.0
 20
-106.5
 11
-77.0
 21
-106.5
  0
LINE
  5
70
330
20
100
AcDbEntity
  8
0
  6
CONTINUOUS
370
     0
 62
     1
100
AcDbLine
 10
-88.0
 20
-107.5
 11
-80.0
 21
-107.5
  0
LINE
  5
71
330
20
100
AcDbEntity
  8
0
  6
CONTINUOUS
370
     0
 62
     1
100
AcDbLine
 10
-80.0
 20
-118.5
 11
-80.0
 21
-106.5
  0
LINE
  5
72
330
20
100
AcDbEntity
  8
0
  6
CONTINUOUS
370
     0
 62
     1
100
AcDbLine
 10
-88.0
 20
-118.5
 11
-88.0
 21
-106.5
  0
LINE
  5
73
330
20
100
AcDbEntity
  8
0
  6
CONTINUOUS
370
     0
 62
     1
100
AcDbLine
 10
-88.0
 20
-118.5
 11
-88.0
 21
-130.5
  0
LINE
  5
74
330
20
100
AcDbEntity
  8
0
  6
CONTINUOUS
370
     0
 62
     1
100
AcDbLine
 10
-80.0
 20
-118.5
 11
-80.0
 21
-130.5
  0
LINE
  5
75
330
20
100
AcDbEntity
  8
0
  6
CONTINUOUS
370
     0
 62
     1
100
AcDbLine
 10
-77.0
 20
-118.5
 11
-77.0
 21
-133.5
  0
LINE
  5
76
330
20
100
AcDbEntity
  8
0
  6
CONTINUOUS
370
     0
 62
     1
100
AcDbLine
 10
-88.0
 20
-130.5
 11
-77.0
 21
-130.5
  0
LINE
  5
77
330
20
100
AcDbEntity
  8
0
  6
CONTINUOUS
370
     0
 62
     1
100
AcDbLine
 10
-77.0
 20
-133.5
 11
-75.0
 21
-133.5
  0
LINE
  5
78
330
20
100
AcDbEntity
  8
0
  6
CONTINUOUS
370
     0
 62
     1
100
AcDbLine
 10
74.5
 20
-88.5
 11
74.5
 21
-60.0
  0
LINE
  5
79
330
20
100
AcDbEntity
  8
0
  6
CONTINUOUS
370
     0
 62
     1
100
AcDbLine
 10
-75.0
 20
-71.0
 11
-74.5
 21
-71.0
  0
LINE
  5
7A
330
20
100
AcDbEntity
  8
0
  6
CONTINUOUS
370
     0
 62
     1
100
AcDbLine
 10
-74.5
 20
-88.5
 11
-74.5
 21
-60.0
  0
LINE
  5
7B
330
20
100
AcDbEntity
  8
0
  6
CONTINUOUS
370
     0
 62
     1
100
AcDbLine
 10
-21.5
 20
-66.5
 11
-1.5
 21
-66.5
  0
LINE
  5
7C
330
20
100
AcDbEntity
  8
0
  6
CONTINUOUS
370
     0
 62
     1
100
AcDbLine
 10
1.5
 20
-66.5
 11
21.5
 21
-66.5
  0
LINE
  5
7D
330
20
100
AcDbEntity
  8
0
  6
CONTINUOUS
370
     0
 62
     1
100
AcDbLine
 10
9.5
 20
-82.5
 11
21.5
 21
-82.5
  0
LINE
  5
7E
330
20
100
AcDbEntity
  8
0
  6
CONTINUOUS
370
     0
 62
     1
100
AcDbLine
 10
-21.5
 20
-82.5
 11
-9.5
 21
-82.5
  0
LINE
  5
7F
330
20
100
AcDbEntity
  8
0
  6
CONTINUOUS
370
     0
 62
     1
100
AcDbLine
 10
-21.5
 20
-82.5
 11
-21.5
 21
-66.5
  0
LINE
  5
80
330
20
100
AcDbEntity
  8
0
  6
CONTINUOUS
370
     0
 62
     1
100
AcDbLine
 10
21.5
 20
-82.5
 11
21.5
 21
-66.5
  0
LINE
  5
81
330
20
100
AcDbEntity
  8
0
  6
CONTINUOUS
370
     0
 62
     1
100
AcDbLine
 10
-9.5
 20
-88.5
 11
-9.5
 21
-82.5
  0
LINE
  5
82
330
20
100
AcDbEntity
  8
0
  6
CONTINUOUS
370
     0
 62
     1
100
AcDbLine
 10
9.5
 20
-88.5
 11
9.5
 21
-82.5
  0
LINE
  5
83
330
20
100
AcDbEntity
  8
0
  6
CONTINUOUS
370
     0
 62
     1
100
AcDbLine
 10
299.0
 20
-60.0
 11
300.0
 21
-60.0
  0
LINE
  5
84
330
20
100
AcDbEntity
  8
0
  6
CONTINUOUS
370
     0
 62
     1
100
AcDbLine
 10
-74.5
 20
-151.0
 11
-74.5
 21
-101.0
  0
LINE
  5
85
330
20
100
AcDbEntity
  8
0
  6
CONTINUOUS
370
     0
 62
     1
100
AcDbLine
 10
74.5
 20
-151.0
 11
74.5
 21
-101.0
  0
LINE
  5
86
330
20
100
AcDbEntity
  8
0
  6
CONTINUOUS
370
     0
 62
     1
100
AcDbLine
 10
-72.5
 20
-99.0
 11
72.5
 21
-99.0
  0
LINE
  5
87
330
20
100
AcDbEntity
  8
0
  6
CONTINUOUS
370
     0
 62
     1
100
AcDbLine
 10
-72.5
 20
-153.0
 11
72.5
 21
-153.0
  0
LINE
  5
88
330
20
100
AcDbEntity
  8
0
  6
CONTINUOUS
370
     0
 62
     1
100
AcDbLine
 10
74.5
 20
-101.0
 11
72.5
 21
-99.0
  0
LINE
  5
89
330
20
100
AcDbEntity
  8
0
  6
CONTINUOUS
370
     0
 62
     1
100
AcDbLine
 10
-74.5
 20
-101.0
 11
-72.5
 21
-99.0
  0
LINE
  5
8A
330
20
100
AcDbEntity
  8
0
  6
CONTINUOUS
370
     0
 62
     1
100
AcDbLine
 10
-74.5
 20
-151.0
 11
-72.5
 21
-153.0
  0
LINE
  5
8B
330
20
100
AcDbEntity
  8
0
  6
CONTINUOUS
370
     0
 62
     1
100
AcDbLine
 10
74.5
 20
-151.0
 11
72.5
 21
-153.0
  0
LINE
  5
8C
330
20
100
AcDbEntity
  8
0
  6
CONTINUOUS
370
     0
 62
     1
100
AcDbLine
 10
270.0
 20
-99.0
 11
271.0
 21
-99.0
  0
LINE
  5
8D
330
20
100
AcDbEntity
  8
0
  6
CONTINUOUS
370
     0
 62
     1
100
AcDbLine
 10
270.0
 20
-153.0
 11
271.0
 21
-153.0
  0
LINE
  5
8E
330
20
100
AcDbEntity
  8
0
  6
CONTINUOUS
370
     0
 62
     1
100
AcDbLine
 10
270.0
 20
-99.0
 11
270.0
 21
-153.0
  0
LINE
  5
8F
330
20
100
AcDbEntity
  8
0
  6
CONTINUOUS
370
     0
 62
     1
100
AcDbLine
 10
270.0
 20
-101.0
 11
271.0
 21
-101.0
  0
LINE
  5
90
330
20
100
AcDbEntity
  8
0
  6
CONTINUOUS
370
     0
 62
     1
100
AcDbLine
 10
270.0
 20
-151.0
 11
271.0
 21
-151.0
  0
LINE
  5
91
330
20
100
AcDbEntity
  8
0
  6
CONTINUOUS
370
     0
 62
     1
100
AcDbLine
 10
329.0
 20
-104.0
 11
330.0
 21
-104.0
  0
LINE
  5
92
330
20
100
AcDbEntity
  8
0
  6
CONTINUOUS
370
     0
 62
     1
100
AcDbLine
 10
329.0
 20
-59.5
 11
330.0
 21
-59.5
  0
LINE
  5
93
330
20
100
AcDbEntity
  8
0
  6
CONTINUOUS
370
     0
 62
     1
100
AcDbLine
 10
330.0
 20
-59.5
 11
330.0
 21
-104.0
  0
LINE
  5
94
330
20
100
AcDbEntity
  8
0
  6
CONTINUOUS
370
     0
 62
     1
100
AcDbLine
 10
329.0
 20
-61.5
 11
330.0
 21
-61.5
  0
LINE
  5
95
330
20
100
AcDbEntity
  8
0
  6
CONTINUOUS
370
     0
 62
     1
100
AcDbLine
 10
329.0
 20
-102.0
 11
330.0
 21
-102.0
  0
LINE
  5
96
330
20
100
AcDbEntity
  8
0
  6
DASHED
370
     0
 62
     1
100
AcDbLine
 10
100.0
 20
-153.5
 11
100.0
 21
-143.5
  0
LINE
  5
97
330
20
100
AcDbEntity
  8
0
  6
DASHED
370
     0
 62
     1
100
AcDbLine
 10
90.0
 20
-153.5
 11
90.0
 21
-143.5
  0
LINE
  5
98
330
20
100
AcDbEntity
  8
0
  6
DASHED
370
     0
 62
     1
100
AcDbLine
 10
-100.0
 20
-153.5
 11
-100.0
 21
-143.5
  0
LINE
  5
99
330
20
100
AcDbEntity
  8
0
  6
DASHED
370
     0
 62
     1
100
AcDbLine
 10
-90.0
 20
-153.5
 11
-90.0
 21
-143.5
  0
LINE
  5
9A
330
20
100
AcDbEntity
  8
0
  6
DASHED
370
     0
 62
     1
100
AcDbLine
 10
297.5
 20
-143.5
 11
297.5
 21
-153.5
  0
LINE
  5
9B
330
20
100
AcDbEntity
  8
0
  6
DASHED
370
     0
 62
     1
100
AcDbLine
 10
322.5
 20
-143.5
 11
322.5
 21
-153.5
  0
LINE
  5
9C
330
20
100
AcDbEntity
  8
0
  6
CONTINUOUS
370
     0
 62
     1
100
AcDbLine
 10
468.0
 20
55.5
 11
468.0
 21
-55.5
  0
LINE
  5
9D
330
20
100
AcDbEntity
  8
0
  6
CENTER
370
     0
 62
     1
100
AcDbLine
 10
424.5
 20
0.0
 11
473.0
 21
0.0
  0
LINE
  5
9E
330
20
100
AcDbEntity
  8
0
  6
CONTINUOUS
370
     0
 62
     1
100
AcDbLine
 10
479.0
 20
-58.5
 11
479.0
 21
-71.0
  0
LINE
  5
9F
330
20
100
AcDbEntity
  8
0
  6
CONTINUOUS
370
     0
 62
     1
100
AcDbLine
 10
450.0
 20
-71.0
 11
479.0
 21
-71.0
  0
LINE
  5
A0
330
20
100
AcDbEntity
  8
0
  6
CONTINUOUS
370
     0
 62
     1
100
AcDbLine
 10
450.0
 20
-58.5
 11
479.0
 21
-58.5
  0
LINE
  5
A1
330
20
100
AcDbEntity
  8
0
  6
CONTINUOUS
370
     0
 62
     1
100
AcDbLine
 10
450.0
 20
-68.0
 11
479.0
 21
-68.0
  0
LINE
  5
A2
330
20
100
AcDbEntity
  8
0
  6
CONTINUOUS
370
     0
 62
     1
100
AcDbLine
 10
450.0
 20
-58.5
 11
450.0
 21
-71.0
  0
CIRCLE
  5
A3
330
20
100
AcDbEntity
  8
0
  6
CONTINUOUS
370
     0
 62
     1
100
AcDbCircle
 10
460.0
 20
0.0
 40
3.0
  0
CIRCLE
  5
A4
330
20
100
AcDbEntity
  8
0
  6
CONTINUOUS
370
     0
 62
     1
100
AcDbCircle
 10
460.0
 20
0.0
 40
2.0
  0
LINE
  5
A5
330
20
100
AcDbEntity
  8
0
  6
CONTINUOUS
370
     0
 62
     1
100
AcDbLine
 10
458.0
 20
-58.5
 11
458.0
 21
-59.5
  0
LINE
  5
A6
330
20
100
AcDbEntity
  8
0
  6
CONTINUOUS
370
     0
 62
     1
100
AcDbLine
 10
462.0
 20
-58.5
 11
462.0
 21
-59.5
  0
LINE
  5
A7
330
20
100
AcDbEntity
  8
0
  6
CONTINUOUS
370
     0
 62
     1
100
AcDbLine
 10
458.0
 20
-59.5
 11
462.0
 21
-59.5
  0
LINE
  5
A8
330
20
100
AcDbEntity
  8
0
  6
CONTINUOUS
370
     0
 62
     1
100
AcDbLine
 10
458.5
 20
-59.5
 11
458.5
 21
-66.15000000000001
  0
LINE
  5
A9
330
20
100
AcDbEntity
  8
0
  6
CONTINUOUS
370
     0
 62
     1
100
AcDbLine
 10
461.5
 20
-59.5
 11
461.5
 21
-66.15000000000001
  0
LINE
  5
AA
330
20
100
AcDbEntity
  8
0
  6
CONTINUOUS
370
     0
 62
     1
100
AcDbLine
 10
458.5
 20
-66.15000000000001
 11
461.5
 21
-66.15000000000001
  0
LINE
  5
AB
330
20
100
AcDbEntity
  8
0
  6
CONTINUOUS
370
     0
 62
     1
100
AcDbLine
 10
458.5
 20
-63.15
 11
461.5
 21
-63.15
  0
HATCH
  5
AC
330
20
100
AcDbEntity
  8
0
  6
CONTINUOUS
370
     0
 62
     1
100
AcDbHatch
 10
0.0
 20
0.0
 30
0.0
210
0.0
220
0.0
230
1.0
  2
_U
 70
     0
 71
     0
 91
        1
 92
        5
 93
        4
 72
     1
 10
450.0
 20
-58.5
 11
479.0
 21
-58.5
 72
     1
 10
479.0
 20
-58.5
 11
479.0
 21
-71.0
 72
     1
 10
479.0
 20
-71.0
 11
450.0
 21
-71.0
 72
     1
 10
450.0
 20
-71.0
 11
450.0
 21
-58.5
 97
        0
 75
     0
 76
     0
 52
45.0
 41
4.0
 77
     0
 78
     1
 53
45.0
 43
84.0
 44
-3.5
 45
-2.828427124746185
 46
2.82842712474619
 79
     0
 47
0.322189
 98
        1
 10
0.0
 20
0.0
  0
LINE
  5
AD
330
20
100
AcDbEntity
  8
0
  6
DASHED
370
     0
 62
     1
100
AcDbLine
 10
465.0
 20
31.0
 11
468.0
 21
31.0
  0
LINE
  5
AE
330
20
100
AcDbEntity
  8
0
  6
DASHED
370
     0
 62
     1
100
AcDbLine
 10
465.0
 20
-31.0
 11
468.0
 21
-31.0
  0
LINE
  5
AF
330
20
100
AcDbEntity
  8
0
  6
DASHED
370
     0
 62
     1
100
AcDbLine
 10
315.0
 20
31.0
 11
318.0
 21
31.0
  0
LINE
  5
B0
330
20
100
AcDbEntity
  8
0
  6
DASHED
370
     0
 62
     1
100
AcDbLine
 10
315.0
 20
-31.0
 11
318.0
 21
-31.0
  0
LINE
  5
B1
330
20
100
AcDbEntity
  8
0
  6
DASHED
370
     0
 62
     1
100
AcDbLine
 10
465.0
 20
31.0
 11
465.0
 21
-31.0
  0
LINE
  5
B2
330
20
100
AcDbEntity
  8
0
  6
DASHED
370
     0
 62
     1
100
AcDbLine
 10
315.0
 20
31.0
 11
315.0
 21
-31.0
  0
LINE
  5
B3
330
20
100
AcDbEntity
  8
0
  6
CENTER
370
     0
 62
     1
100
AcDbLine
 10
460.0
 20
-6.75
 11
460.0
 21
6.75
  0
LINE
  5
B4
330
20
100
AcDbEntity
  8
0
  6
CENTER
370
     0
 62
     1
100
AcDbLine
 10
460.0
 20
-53.5
 11
460.0
 21
-66.15000000000001
  0
LINE
  5
B5
330
20
100
AcDbEntity
  8
0
  6
CENTER
370
     0
 62
     1
100
AcDbLine
 10
272.75
 20
-118.5
 11
304.25
 21
-118.5
  0
LINE
  5
B6
330
20
100
AcDbEntity
  8
0
  6
CENTER
370
     0
 62
     1
100
AcDbLine
 10
288.5
 20
-134.25
 11
288.5
 21
-102.75
  0
CIRCLE
  5
B7
330
20
100
AcDbEntity
  8
0
  6
CONTINUOUS
370
     0
 62
     1
100
AcDbCircle
 10
291.5
 20
-71.5
 40
4.25
  0
CIRCLE
  5
B8
330
20
100
AcDbEntity
  8
0
  6
CONTINUOUS
370
     0
 62
     1
100
AcDbCircle
 10
291.5
 20
-82.5
 40
4.25
  0
CIRCLE
  5
B9
330
20
100
AcDbEntity
  8
0
  6
CONTINUOUS
370
     0
 62
     1
100
AcDbCircle
 10
11.5
 20
-74.5
 40
5.0
  0
CIRCLE
  5
BA
330
20
100
AcDbEntity
  8
0
  6
CONTINUOUS
370
     0
 62
     1
100
AcDbCircle
 10
-11.5
 20
-74.5
 40
5.0
  0
CIRCLE
  5
BB
330
20
100
AcDbEntity
  8
0
  6
CONTINUOUS
370
     0
 62
     1
100
AcDbCircle
 10
291.5
 20
-71.5
 40
2.5
  0
CIRCLE
  5
BC
330
20
100
AcDbEntity
  8
0
  6
CONTINUOUS
370
     0
 62
     1
100
AcDbCircle
 10
291.5
 20
-82.5
 40
2.5
  0
CIRCLE
  5
BD
330
20
100
AcDbEntity
  8
0
  6
CONTINUOUS
370
     0
 62
     1
100
AcDbCircle
 10
-11.5
 20
-74.5
 40
3.0
  0
CIRCLE
  5
BE
330
20
100
AcDbEntity
  8
0
  6
CONTINUOUS
370
     0
 62
     1
100
AcDbCircle
 10
11.5
 20
-74.5
 40
3.0
  0
LINE
  5
BF
330
20
100
AcDbEntity
  8
0
  6
CENTER
370
     0
 62
     1
100
AcDbLine
 10
291.5
 20
-63.5
 11
291.5
 21
-90.5
  0
LINE
  5
C0
330
20
100
AcDbEntity
  8
0
  6
CENTER
370
     0
 62
     1
100
AcDbLine
 10
283.5
 20
-71.5
 11
299.5
 21
-71.5
  0
LINE
  5
C1
330
20
100
AcDbEntity
  8
0
  6
CENTER
370
     0
 62
     1
100
AcDbLine
 10
283.5
 20
-82.5
 11
299.5
 21
-82.5
  0
LINE
  5
C2
330
20
100
AcDbEntity
  8
0
  6
CONTINUOUS
370
     0
 62
     1
100
AcDbLine
 10
-57.0
 20
-86.75
 11
-52.0
 21
-86.75
  0
LINE
  5
C3
330
20
100
AcDbEntity
  8
0
  6
CONTINUOUS
370
     0
 62
     1
100
AcDbLine
 10
52.0
 20
-86.75
 11
57.0
 21
-86.75
  0
LINE
  5
C4
330
20
100
AcDbEntity
  8
0
  6
CONTINUOUS
370
     0
 62
     1
100
AcDbLine
 10
52.0
 20
-67.25
 11
57.0
 21
-67.25
  0
LINE
  5
C5
330
20
100
AcDbEntity
  8
0
  6
CONTINUOUS
370
     0
 62
     1
100
AcDbLine
 10
52.0
 20
-75.75
 11
57.0
 21
-75.75
  0
LINE
  5
C6
330
20
100
AcDbEntity
  8
0
  6
CONTINUOUS
370
     0
 62
     1
100
AcDbLine
 10
57.0
 20
-75.75
 11
57.0
 21
-67.25
  0
LINE
  5
C7
330
20
100
AcDbEntity
  8
0
  6
CONTINUOUS
370
     0
 62
     1
100
AcDbLine
 10
52.0
 20
-78.25
 11
57.0
 21
-78.25
  0
LINE
  5
C8
330
20
100
AcDbEntity
  8
0
  6
CONTINUOUS
370
     0
 62
     1
100
AcDbLine
 10
57.0
 20
-86.75
 11
57.0
 21
-78.25
  0
LINE
  5
C9
330
20
100
AcDbEntity
  8
0
  6
CONTINUOUS
370
     0
 62
     1
100
AcDbLine
 10
-57.0
 20
-78.25
 11
-52.0
 21
-78.25
  0
LINE
  5
CA
330
20
100
AcDbEntity
  8
0
  6
CONTINUOUS
370
     0
 62
     1
100
AcDbLine
 10
-57.0
 20
-86.75
 11
-57.0
 21
-78.25
  0
LINE
  5
CB
330
20
100
AcDbEntity
  8
0
  6
CONTINUOUS
370
     0
 62
     1
100
AcDbLine
 10
-57.0
 20
-75.75
 11
-52.0
 21
-75.75
  0
LINE
  5
CC
330
20
100
AcDbEntity
  8
0
  6
CONTINUOUS
370
     0
 62
     1
100
AcDbLine
 10
-57.0
 20
-67.25
 11
-52.0
 21
-67.25
  0
LINE
  5
CD
330
20
100
AcDbEntity
  8
0
  6
CONTINUOUS
370
     0
 62
     1
100
AcDbLine
 10
-57.0
 20
-75.75
 11
-57.0
 21
-67.25
  0
LINE
  5
CE
330
20
100
AcDbEntity
  8
0
  6
CENTER
370
     0
 62
     1
100
AcDbLine
 10
2.75
 20
-74.5
 11
20.25
 21
-74.5
  0
LINE
  5
CF
330
20
100
AcDbEntity
  8
0
  6
CENTER
370
     0
 62
     1
100
AcDbLine
 10
11.5
 20
-83.25
 11
11.5
 21
-65.75
  0
LINE
  5
D0
330
20
100
AcDbEntity
  8
0
  6
CENTER
370
     0
 62
     1
100
AcDbLine
 10
-20.25
 20
-74.5
 11
-2.75
 21
-74.5
  0
LINE
  5
D1
330
20
100
AcDbEntity
  8
0
  6
CENTER
370
     0
 62
     1
100
AcDbLine
 10
-11.5
 20
-83.25
 11
-11.5
 21
-65.75
  0
LINE
  5
D2
330
20
100
AcDbEntity
  8
0
  6
CONTINUOUS
370
     0
 62
     1
100
AcDbLine
 10
278.0
 20
-69.5
 11
278.0
 21
-79.5
  0
LINE
  5
D3
330
20
100
AcDbEntity
  8
0
  6
CENTER
370
     0
 62
     1
100
AcDbLine
 10
-59.5
 20
-71.5
 11
-49.5
 21
-71.5
  0
LINE
  5
D4
330
20
100
AcDbEntity
  8
0
  6
CENTER
370
     0
 62
     1
100
AcDbLine
 10
-59.5
 20
-82.5
 11
-49.5
 21
-82.5
  0
LINE
  5
D5
330
20
100
AcDbEntity
  8
0
  6
CENTER
370
     0
 62
     1
100
AcDbLine
 10
49.5
 20
-71.5
 11
59.5
 21
-71.5
  0
LINE
  5
D6
330
20
100
AcDbEntity
  8
0
  6
CENTER
370
     0
 62
     1
100
AcDbLine
 10
49.5
 20
-82.5
 11
59.5
 21
-82.5
  0
CIRCLE
  5
D7
330
20
100
AcDbEntity
  8
0
  6
CONTINUOUS
370
     0
 62
     1
100
AcDbCircle
 10
70.0
 20
-103.5
 40
2.5
  0
CIRCLE
  5
D8
330
20
100
AcDbEntity
  8
0
  6
CONTINUOUS
370
     0
 62
     1
100
AcDbCircle
 10
70.0
 20
-148.5
 40
2.5
  0
CIRCLE
  5
D9
330
20
100
AcDbEntity
  8
0
  6
CONTINUOUS
370
     0
 62
     1
100
AcDbCircle
 10
-70.0
 20
-103.5
 40
2.5
  0
CIRCLE
  5
DA
330
20
100
AcDbEntity
  8
0
  6
CONTINUOUS
370
     0
 62
     1
100
AcDbCircle
 10
-70.0
 20
-148.5
 40
2.5
  0
ARC
  5
DB
330
20
100
AcDbEntity
  8
0
  6
CONTINUOUS
370
     0
 62
     1
100
AcDbCircle
 10
270.0
 20
-103.5
 40
2.5
100
AcDbArc
 50
90.0
 51
270.0
  0
ARC
  5
DC
330
20
100
AcDbEntity
  8
0
  6
CONTINUOUS
370
     0
 62
     1
100
AcDbCircle
 10
270.0
 20
-148.5
 40
2.5
100
AcDbArc
 50
90.0
 51
270.0
  0
ARC
  5
DD
330
20
100
AcDbEntity
  8
0
  6
CONTINUOUS
370
     0
 62
     1
100
AcDbCircle
 10
330.0
 20
-99.5
 40
2.5
100
AcDbArc
 50
0.0
 51
90.0
  0
ARC
  5
DE
330
20
100
AcDbEntity
  8
0
  6
CONTINUOUS
370
     0
 62
     1
100
AcDbCircle
 10
330.0
 20
-99.5
 40
2.5
100
AcDbArc
 50
270.0
 51
0.0
  0
ARC
  5
DF
330
20
100
AcDbEntity
  8
0
  6
CONTINUOUS
370
     0
 62
     1
100
AcDbCircle
 10
330.0
 20
-64.5
 40
2.5
100
AcDbArc
 50
270.0
 51
0.0
  0
ARC
  5
E0
330
20
100
AcDbEntity
  8
0
  6
CONTINUOUS
370
     0
 62
     1
100
AcDbCircle
 10
330.0
 20
-64.5
 40
2.5
100
AcDbArc
 50
0.0
 51
90.0
  0
ARC
  5
E1
330
20
100
AcDbEntity
  8
0
  6
CONTINUOUS
370
     0
 62
     1
100
AcDbCircle
 10
324.25
 20
-58.5
 40
2.5
100
AcDbArc
 50
0.0
 51
180.0
  0
ARC
  5
E2
330
20
100
AcDbEntity
  8
0
  6
CONTINUOUS
370
     0
 62
     1
100
AcDbCircle
 10
304.75
 20
-58.5
 40
2.5
100
AcDbArc
 50
0.0
 51
180.0
  0
LINE
  5
E3
330
20
100
AcDbEntity
  8
0
  6
CENTER
370
     0
 62
     1
100
AcDbLine
 10
63.75
 20
-103.5
 11
76.25
 21
-103.5
  0
LINE
  5
E4
330
20
100
AcDbEntity
  8
0
  6
CENTER
370
     0
 62
     1
100
AcDbLine
 10
70.0
 20
-109.75
 11
70.0
 21
-97.25
  0
LINE
  5
E5
330
20
100
AcDbEntity
  8
0
  6
CENTER
370
     0
 62
     1
100
AcDbLine
 10
63.75
 20
-148.5
 11
76.25
 21
-148.5
  0
LINE
  5
E6
330
20
100
AcDbEntity
  8
0
  6
CENTER
370
     0
 62
     1
100
AcDbLine
 10
70.0
 20
-154.75
 11
70.0
 21
-142.25
  0
LINE
  5
E7
330
20
100
AcDbEntity
  8
0
  6
CENTER
370
     0
 62
     1
100
AcDbLine
 10
-76.25
 20
-148.5
 11
-63.75
 21
-148.5
  0
LINE
  5
E8
330
20
100
AcDbEntity
  8
0
  6
CENTER
370
     0
 62
     1
100
AcDbLine
 10
-70.0
 20
-154.75
 11
-70.0
 21
-142.25
  0
LINE
  5
E9
330
20
100
AcDbEntity
  8
0
  6
CENTER
370
     0
 62
     1
100
AcDbLine
 10
-76.25
 20
-103.5
 11
-63.75
 21
-103.5
  0
LINE
  5
EA
330
20
100
AcDbEntity
  8
0
  6
CENTER
370
     0
 62
     1
100
AcDbLine
 10
-70.0
 20
-109.75
 11
-70.0
 21
-97.25
  0
LINE
  5
EB
330
20
100
AcDbEntity
  8
0
  6
CENTER
370
     0
 62
     1
100
AcDbLine
 10
323.75
 20
-99.5
 11
336.25
 21
-99.5
  0
LINE
  5
EC
330
20
100
AcDbEntity
  8
0
  6
CENTER
370
     0
 62
     1
100
AcDbLine
 10
323.75
 20
-64.5
 11
336.25
 21
-64.5
  0
LINE
  5
ED
330
20
100
AcDbEntity
  8
0
  6
CENTER
370
     0
 62
     1
100
AcDbLine
 10
263.75
 20
-103.5
 11
276.25
 21
-103.5
  0
LINE
  5
EE
330
20
100
AcDbEntity
  8
0
  6
CENTER
370
     0
 62
     1
100
AcDbLine
 10
263.75
 20
-148.5
 11
276.25
 21
-148.5
  0
LINE
  5
EF
330
20
100
AcDbEntity
  8
0
  6
CENTER
370
     0
 62
     1
100
AcDbLine
 10
324.25
 20
-64.75
 11
324.25
 21
-52.25
  0
LINE
  5
F0
330
20
100
AcDbEntity
  8
0
  6
CENTER
370
     0
 62
     1
100
AcDbLine
 10
304.75
 20
-64.75
 11
304.75
 21
-52.25
  0
CIRCLE
  5
F1
330
20
100
AcDbEntity
  8
0
  6
CONTINUOUS
370
     0
 62
     1
100
AcDbCircle
 10
300.0
 20
-107.0
 40
2.5
  0
CIRCLE
  5
F2
330
20
100
AcDbEntity
  8
0
  6
CONTINUOUS
370
     0
 62
     1
100
AcDbCircle
 10
277.0
 20
-107.0
 40
2.5
  0
CIRCLE
  5
F3
330
20
100
AcDbEntity
  8
0
  6
CONTINUOUS
370
     0
 62
     1
100
AcDbCircle
 10
277.0
 20
-130.0
 40
2.5
  0
CIRCLE
  5
F4
330
20
100
AcDbEntity
  8
0
  6
CONTINUOUS
370
     0
 62
     1
100
AcDbCircle
 10
300.0
 20
-130.0
 40
2.5
  0
LINE
  5
F5
330
20
100
AcDbEntity
  8
0
  6
CENTER
370
     0
 62
     1
100
AcDbLine
 10
293.75
 20
-107.0
 11
306.25
 21
-107.0
  0
LINE
  5
F6
330
20
100
AcDbEntity
  8
0
  6
CENTER
370
     0
 62
     1
100
AcDbLine
 10
300.0
 20
-113.25
 11
300.0
 21
-100.75
  0
LINE
  5
F7
330
20
100
AcDbEntity
  8
0
  6
CENTER
370
     0
 62
     1
100
AcDbLine
 10
270.75
 20
-107.0
 11
283.25
 21
-107.0
  0
LINE
  5
F8
330
20
100
AcDbEntity
  8
0
  6
CENTER
370
     0
 62
     1
100
AcDbLine
 10
277.0
 20
-113.25
 11
277.0
 21
-100.75
  0
LINE
  5
F9
330
20
100
AcDbEntity
  8
0
  6
CENTER
370
     0
 62
     1
100
AcDbLine
 10
270.75
 20
-130.0
 11
283.25
 21
-130.0
  0
LINE
  5
FA
330
20
100
AcDbEntity
  8
0
  6
CENTER
370
     0
 62
     1
100
AcDbLine
 10
277.0
 20
-136.25
 11
277.0
 21
-123.75
  0
LINE
  5
FB
330
20
100
AcDbEntity
  8
0
  6
CENTER
370
     0
 62
     1
100
AcDbLine
 10
293.75
 20
-130.0
 11
306.25
 21
-130.0
  0
LINE
  5
FC
330
20
100
AcDbEntity
  8
0
  6
CENTER
370
     0
 62
     1
100
AcDbLine
 10
300.0
 20
-136.25
 11
300.0
 21
-123.75
  0
CIRCLE
  5
FD
330
20
100
AcDbEntity
  8
0
  6
CONTINUOUS
370
     0
 62
     1
100
AcDbCircle
 10
0.0
 20
0.0
 40
60.5
  0
CIRCLE
  5
FE
330
20
100
AcDbEntity
  8
0
  6
CONTINUOUS
370
     0
 62
     1
100
AcDbCircle
 10
0.0
 20
0.0
 40
55.5
  0
ARC
  5
FF
330
20
100
AcDbEntity
  8
0
  6
CONTINUOUS
370
     0
 62
     1
100
AcDbCircle
 10
0.0
 20
0.0
 40
77.5
100
AcDbArc
 50
315.1188013853762
 51
0.0
  0
ARC
  5
100
330
20
100
AcDbEntity
  8
0
  6
CONTINUOUS
370
     0
 62
     1
100
AcDbCircle
 10
0.0
 20
0.0
 40
77.5
100
AcDbArc
 50
0.0
 51
224.8811986146239
  0
LINE
  5
101
330
20
100
AcDbEntity
  8
0
  6
CONTINUOUS
370
     0
 62
     1
100
AcDbLine
 10
282.0
 20
77.5
 11
282.0
 21
-87.5
  0
LINE
  5
102
330
20
100
AcDbEntity
  8
0
  6
CONTINUOUS
370
     0
 62
     1
100
AcDbLine
 10
282.0
 20
-57.4652068646759
 11
299.0
 21
-57.4652068646759
  0
LINE
  5
103
330
20
100
AcDbEntity
  8
0
  6
CONTINUOUS
370
     0
 62
     1
100
AcDbLine
 10
284.0
 20
-87.5
 11
284.0
 21
-88.5
  0
LINE
  5
104
330
20
100
AcDbEntity
  8
0
  6
CONTINUOUS
370
     0
 62
     1
100
AcDbLine
 10
278.0
 20
-69.5
 11
282.0
 21
-69.5
  0
LINE
  5
105
330
20
100
AcDbEntity
  8
0
  6
CONTINUOUS
370
     0
 62
     1
100
AcDbLine
 10
278.0
 20
-79.5
 11
282.0
 21
-79.5
  0
LINE
  5
106
330
20
100
AcDbEntity
  8
0
  6
CONTINUOUS
370
     0
 62
     1
100
AcDbLine
 10
305.0
 20
55.5
 11
305.0
 21
-55.5
  0
LINE
  5
107
330
20
100
AcDbEntity
  8
0
  6
CONTINUOUS
370
     0
 62
     1
100
AcDbLine
 10
279.5
 20
31.0
 11
279.5
 21
-31.0
  0
LINE
  5
108
330
20
100
AcDbEntity
  8
0
  6
CONTINUOUS
370
     0
 62
     1
100
AcDbLine
 10
282.0
 20
77.5
 11
299.0
 21
77.5
  0
LINE
  5
109
330
20
100
AcDbEntity
  8
0
  6
CONTINUOUS
370
     0
 62
     1
100
AcDbLine
 10
279.5
 20
31.0
 11
282.0
 21
31.0
  0
LINE
  5
10A
330
20
100
AcDbEntity
  8
0
  6
CONTINUOUS
370
     0
 62
     1
100
AcDbLine
 10
279.5
 20
-31.0
 11
282.0
 21
-31.0
  0
LINE
  5
10B
330
20
100
AcDbEntity
  8
0
  6
CONTINUOUS
370
     0
 62
     1
100
AcDbLine
 10
305.0
 20
55.5
 11
318.0
 21
55.5
  0
LINE
  5
10C
330
20
100
AcDbEntity
  8
0
  6
CONTINUOUS
370
     0
 62
     1
100
AcDbLine
 10
305.0
 20
-55.5
 11
318.0
 21
-55.5
  0
ARC
  5
10D
330
20
100
AcDbEntity
  8
0
  6
CONTINUOUS
370
     0
 62
     1
100
AcDbCircle
 10
301.5
 20
27.5
 40
3.5
100
AcDbArc
 50
270.0
 51
0.0
  0
ARC
  5
10E
330
20
100
AcDbEntity
  8
0
  6
CONTINUOUS
370
     0
 62
     1
100
AcDbCircle
 10
301.5
 20
-27.5
 40
3.5
100
AcDbArc
 50
0.0
 51
90.0
  0
LINE
  5
10F
330
20
100
AcDbEntity
  8
0
  6
CONTINUOUS
370
     0
 62
     1
100
AcDbLine
 10
299.0
 20
24.0
 11
301.5
 21
24.0
  0
LINE
  5
110
330
20
100
AcDbEntity
  8
0
  6
CONTINUOUS
370
     0
 62
     1
100
AcDbLine
 10
299.0
 20
-24.0
 11
301.5
 21
-24.0
  0
CIRCLE
  5
111
330
20
100
AcDbEntity
  8
0
  6
CONTINUOUS
370
     0
 62
     1
100
AcDbCircle
 10
290.0
 20
70.0
 40
5.5
  0
LINE
  5
112
330
20
100
AcDbEntity
  8
0
  6
CONTINUOUS
370
     0
 62
     1
100
AcDbLine
 10
455.0
 20
55.5
 11
468.0
 21
55.5
  0
LINE
  5
113
330
20
100
AcDbEntity
  8
0
  6
CONTINUOUS
370
     0
 62
     1
100
AcDbLine
 10
455.0
 20
-55.5
 11
468.0
 21
-55.5
  0
LINE
  5
114
330
20
100
AcDbEntity
  8
0
  6
CONTINUOUS
370
     0
 62
     1
100
AcDbLine
 10
455.0
 20
55.5
 11
455.0
 21
-55.5
  0
LINE
  5
115
330
20
100
AcDbEntity
  8
0
  6
CONTINUOUS
370
     0
 62
     1
100
AcDbLine
 10
448.5
 20
24.0
 11
451.5
 21
24.0
  0
LINE
  5
116
330
20
100
AcDbEntity
  8
0
  6
CONTINUOUS
370
     0
 62
     1
100
AcDbLine
 10
448.5
 20
-24.0
 11
451.5
 21
-24.0
  0
LINE
  5
117
330
20
100
AcDbEntity
  8
0
  6
CONTINUOUS
370
     0
 62
     1
100
AcDbLine
 10
445.0
 20
60.5
 11
445.0
 21
-60.5
  0
LINE
  5
118
330
20
100
AcDbEntity
  8
0
  6
CONTINUOUS
370
     0
 62
     1
100
AcDbLine
 10
432.0
 20
55.5
 11
432.0
 21
-55.5
  0
LINE
  5
119
330
20
100
AcDbEntity
  8
0
  6
CONTINUOUS
370
     0
 62
     1
100
AcDbLine
 10
429.5
 20
31.0
 11
429.5
 21
-31.0
  0
LINE
  5
11A
330
20
100
AcDbEntity
  8
0
  6
CONTINUOUS
370
     0
 62
     1
100
AcDbLine
 10
432.5
 20
-60.5
 11
445.0
 21
-60.5
  0
LINE
  5
11B
330
20
100
AcDbEntity
  8
0
  6
CONTINUOUS
370
     0
 62
     1
100
AcDbLine
 10
432.5
 20
60.5
 11
445.0
 21
60.5
  0
LINE
  5
11C
330
20
100
AcDbEntity
  8
0
  6
CONTINUOUS
370
     0
 62
     1
100
AcDbLine
 10
432.5
 20
60.5
 11
432.5
 21
-60.5
  0
LINE
  5
11D
330
20
100
AcDbEntity
  8
0
  6
CONTINUOUS
370
     0
 62
     1
100
AcDbLine
 10
432.0
 20
55.5
 11
432.5
 21
55.5
  0
LINE
  5
11E
330
20
100
AcDbEntity
  8
0
  6
CONTINUOUS
370
     0
 62
     1
100
AcDbLine
 10
432.0
 20
-55.5
 11
432.5
 21
-55.5
  0
LINE
  5
11F
330
20
100
AcDbEntity
  8
0
  6
CONTINUOUS
370
     0
 62
     1
100
AcDbLine
 10
434.0
 20
60.5
 11
434.0
 21
-60.5
  0
LINE
  5
120
330
20
100
AcDbEntity
  8
0
  6
CONTINUOUS
370
     0
 62
     1
100
AcDbLine
 10
436.5
 20
60.5
 11
436.5
 21
-60.5
  0
LINE
  5
121
330
20
100
AcDbEntity
  8
0
  6
CONTINUOUS
370
     0
 62
     1
100
AcDbLine
 10
442.5
 20
60.5
 11
442.5
 21
-60.5
  0
LINE
  5
122
330
20
100
AcDbEntity
  8
0
  6
CONTINUOUS
370
     0
 62
     1
100
AcDbLine
 10
429.5
 20
31.0
 11
432.0
 21
31.0
  0
LINE
  5
123
330
20
100
AcDbEntity
  8
0
  6
CONTINUOUS
370
     0
 62
     1
100
AcDbLine
 10
429.5
 20
-31.0
 11
432.0
 21
-31.0
  0
ARC
  5
124
330
20
100
AcDbEntity
  8
0
  6
CONTINUOUS
370
     0
 62
     1
100
AcDbCircle
 10
451.5
 20
27.5
 40
3.5
100
AcDbArc
 50
270.0
 51
0.0
  0
ARC
  5
125
330
20
100
AcDbEntity
  8
0
  6
CONTINUOUS
370
     0
 62
     1
100
AcDbCircle
 10
448.5
 20
27.5
 40
3.5
100
AcDbArc
 50
180.0
 51
270.0
  0
ARC
  5
126
330
20
100
AcDbEntity
  8
0
  6
CONTINUOUS
370
     0
 62
     1
100
AcDbCircle
 10
451.5
 20
-27.5
 40
3.5
100
AcDbArc
 50
0.0
 51
90.0
  0
ARC
  5
127
330
20
100
AcDbEntity
  8
0
  6
CONTINUOUS
370
     0
 62
     1
100
AcDbCircle
 10
448.5
 20
-27.5
 40
3.5
100
AcDbArc
 50
90.0
 51
180.0
  0
LINE
  5
128
330
20
100
AcDbEntity
  8
0
  6
CONTINUOUS
370
     0
 62
     1
100
AcDbLine
 10
432.0
 20
77.5
 11
449.0
 21
77.5
  0
LINE
  5
129
330
20
100
AcDbEntity
  8
0
  6
CONTINUOUS
370
     0
 62
     1
100
AcDbLine
 10
432.0
 20
66.5
 11
432.0
 21
77.5
  0
LINE
  5
12A
330
20
100
AcDbEntity
  8
0
  6
CONTINUOUS
370
     0
 62
     1
100
AcDbLine
 10
449.0
 20
77.5
 11
449.0
 21
66.5
  0
ARC
  5
12B
330
20
100
AcDbEntity
  8
0
  6
CONTINUOUS
370
     0
 62
     1
100
AcDbCircle
 10
62.0
 20
-61.7434207021283
 40
10.0
100
AcDbArc
 50
135.1188013853762
 51
180.0
  0
ARC
  5
12C
330
20
100
AcDbEntity
  8
0
  6
CONTINUOUS
370
     0
 62
     1
100
AcDbCircle
 10
-62.0
 20
-61.7434207021283
 40
10.0
100
AcDbArc
 50
0.0
 51
44.88119861462381
  0
LINE
  5
12D
330
20
100
AcDbEntity
  8
0
  6
CONTINUOUS
370
     0
 62
     1
100
AcDbLine
 10
52.5406013854471
 20
-58.5
 11
76.0
 21
-58.5
  0
LINE
  5
12E
330
20
100
AcDbEntity
  8
0
  6
CONTINUOUS
370
     0
 62
     1
100
AcDbLine
 10
52.25489540573
 20
-59.5
 11
75.0
 21
-59.5
  0
LINE
  5
12F
330
20
100
AcDbEntity
  8
0
  6
CONTINUOUS
370
     0
 62
     1
100
AcDbLine
 10
52.1531485105446
 20
-60.0
 11
74.5
 21
-60.0
  0
LINE
  5
130
330
20
100
AcDbEntity
  8
0
  6
CONTINUOUS
370
     0
 62
     1
100
AcDbLine
 10
-74.5
 20
-60.0
 11
-52.1531485105446
 21
-60.0
  0
LINE
  5
131
330
20
100
AcDbEntity
  8
0
  6
CONTINUOUS
370
     0
 62
     1
100
AcDbLine
 10
-76.0
 20
-59.5
 11
-52.25489540573
 21
-59.5
  0
LINE
  5
132
330
20
100
AcDbEntity
  8
0
  6
CONTINUOUS
370
     0
 62
     1
100
AcDbLine
 10
-76.0
 20
-58.5
 11
-52.5406013854471
 21
-58.5
  0
LINE
  5
133
330
20
100
AcDbEntity
  8
0
  6
CONTINUOUS
370
     0
 62
     1
100
AcDbLine
 10
-31.6227766016838
 20
-58.5
 11
-15.4272486205415
 21
-58.5
  0
LINE
  5
134
330
20
100
AcDbEntity
  8
0
  6
CONTINUOUS
370
     0
 62
     1
100
AcDbLine
 10
-29.698484809835
 20
-59.5
 11
-10.9544511501033
 21
-59.5
  0
LINE
  5
135
330
20
100
AcDbEntity
  8
0
  6
CONTINUOUS
370
     0
 62
     1
100
AcDbLine
 10
-28.6749019178793
 20
-60.0
 11
-7.76208734813
 21
-60.0
  0
LINE
  5
136
330
20
100
AcDbEntity
  8
0
  6
CONTINUOUS
370
     0
 62
     1
100
AcDbLine
 10
15.4272486205415
 20
-58.5
 11
31.6227766016838
 21
-58.5
  0
LINE
  5
137
330
20
100
AcDbEntity
  8
0
  6
CONTINUOUS
370
     0
 62
     1
100
AcDbLine
 10
10.9544511501033
 20
-59.5
 11
29.698484809835
 21
-59.5
  0
LINE
  5
138
330
20
100
AcDbEntity
  8
0
  6
CONTINUOUS
370
     0
 62
     1
100
AcDbLine
 10
7.76208734813
 20
-60.0
 11
28.6749019178793
 21
-60.0
  0
CIRCLE
  5
139
330
20
100
AcDbEntity
  8
0
  6
CENTER
370
     0
 62
     1
100
AcDbCircle
 10
0.0
 20
0.0
 40
46.0
  0
LINE
  5
13A
330
20
100
AcDbEntity
  8
0
  6
CENTER
370
     0
 62
     1
100
AcDbLine
 10
-85.0
 20
0.0
 11
85.0
 21
0.0
  0
LINE
  5
13B
330
20
100
AcDbEntity
  8
0
  6
CENTER
370
     0
 62
     1
100
AcDbLine
 10
-93.0
 20
-118.5
 11
-69.5
 21
-118.5
  0
LINE
  5
13C
330
20
100
AcDbEntity
  8
0
  6
CENTER
370
     0
 62
     1
100
AcDbLine
 10
69.5
 20
-118.5
 11
93.0
 21
-118.5
  0
LINE
  5
13D
330
20
100
AcDbEntity
  8
0
  6
CENTER
370
     0
 62
     1
100
AcDbLine
 10
95.0
 20
-158.5
 11
95.0
 21
-138.5
  0
LINE
  5
13E
330
20
100
AcDbEntity
  8
0
  6
CENTER
370
     0
 62
     1
100
AcDbLine
 10
-95.0
 20
-158.5
 11
-95.0
 21
-138.5
  0
DIMENSION
  5
150
330
20
100
AcDbEntity
  8
0
  6
CONTINUOUS
370
     0
 62
     1
100
AcDbDimension
  2
*D1
 10
130.0
 20
-143.5
 11
129.0
 21
-152.0625
 70
    32
 42
10.0
  3
ISO-25 0.5
100
AcDbAlignedDimension
 13
105.0
 23
-153.5
 14
105.0
 24
-143.5
 50
90.0
100
AcDbRotatedDimension
  0
DIMENSION
  5
160
330
20
100
AcDbEntity
  8
0
  6
CONTINUOUS
370
     0
 62
     1
100
AcDbDimension
  2
*D2
 10
150.0
 20
-118.5
 11
149.0
 21
-139.5625
 70
    32
 42
35.0
  3
ISO-25 0.5
100
AcDbAlignedDimension
 13
105.0
 23
-153.5
 14
93.0
 24
-118.5
 50
90.0
100
AcDbRotatedDimension
  0
DIMENSION
  5
170
330
20
100
AcDbEntity
  8
0
  6
CONTINUOUS
370
     0
 62
     1
100
AcDbDimension
  2
*D3
 10
170.0
 20
0.0
 11
169.0
 21
-86.5
 70
    32
 42
153.5
  3
ISO-25 0.5
100
AcDbAlignedDimension
 13
105.0
 23
-153.5
 14
85.0
 24
0.0
 50
90.0
100
AcDbRotatedDimension
  0
DIMENSION
  5
180
330
20
100
AcDbEntity
  8
0
  6
CONTINUOUS
370
     0
 62
     1
100
AcDbDimension
  2
*D4
 10
190.0
 20
77.5
 11
189.0
 21
-43.625
 70
    32
 42
231.0
  3
ISO-25 0.5
100
AcDbAlignedDimension
 13
105.0
 23
-153.5
 14
0.0
 24
77.5
 50
90.0
100
AcDbRotatedDimension
  0
DIMENSION
  5
191
330
20
100
AcDbEntity
  8
0
  6
CONTINUOUS
370
     0
 62
     1
100
AcDbDimension
  2
*D5
 10
282.0
 20
100.0
 11
272.9375
 21
101.0
 70
    32
 42
11.0
  3
ISO-25 0.5
100
AcDbAlignedDimension
 13
271.0
 23
-88.5
 14
282.0
 24
77.5
 50
0.0
100
AcDbRotatedDimension
  0
DIMENSION
  5
1A0
330
20
100
AcDbEntity
  8
0
  6
CONTINUOUS
370
     0
 62
     1
100
AcDbDimension
  2
*D6
 10
299.0
 20
100.0
 11
286.9375
 21
101.0
 70
    32
 42
17.0
  3
ISO-25 0.5
100
AcDbAlignedDimension
 13
282.0
 23
77.5
 14
299.0
 24
77.5
 50
0.0
100
AcDbRotatedDimension
  0
DIMENSION
  5
1AF
330
20
100
AcDbEntity
  8
0
  6
CONTINUOUS
370
     0
 62
     1
100
AcDbDimension
  2
*D7
 10
318.0
 20
100.0
 11
304.9375
 21
101.0
 70
    32
 42
19.0
  3
ISO-25 0.5
100
AcDbAlignedDimension
 13
299.0
 23
77.5
 14
318.0
 24
55.5
 50
0.0
100
AcDbRotatedDimension
  0
DIMENSION
  5
1BF
330
20
100
AcDbEntity
  8
0
  6
CONTINUOUS
370
     0
 62
     1
100
AcDbDimension
  2
*D8
 10
329.0
 20
100.0
 11
319.9375
 21
101.0
 70
    32
 42
11.0
  3
ISO-25 0.5
100
AcDbAlignedDimension
 13
318.0
 23
55.5
 14
329.0
 24
-58.5
 50
0.0
100
AcDbRotatedDimension
  0
DIMENSION
  5
1CF
330
20
100
AcDbEntity
  8
0
  6
CONTINUOUS
370
     0
 62
     1
100
AcDbDimension
  2
*D9
 10
468.0
 20
100.0
 11
446.4375
 21
101.0
 70
    32
 42
36.0
  3
ISO-25 0.5
100
AcDbAlignedDimension
 13
432.0
 23
77.5
 14
468.0
 24
55.5
 50
0.0
100
AcDbRotatedDimension
  0
DIMENSION
  5
1DF
330
20
100
AcDbEntity
  8
0
  6
CONTINUOUS
370
     0
 62
     1
100
AcDbDimension
  2
*D10
 10
380.0
 20
-60.5
 11
379.0
 21
-7.6875
 70
    32
 42
121.0
  3
ISO-25 0.5
100
AcDbAlignedDimension
 13
432.5
 23
60.5
 14
432.5
 24
-60.5
 50
270.0
100
AcDbRotatedDimension
  0
DIMENSION
  5
1F2
330
20
100
AcDbEntity
  8
0
  6
CONTINUOUS
370
     0
 62
     1
100
AcDbDimension
  2
*D11
 10
400.0
 20
-31.0
 11
396.5
 21
-25.15625
 70
    32
 42
62.0
  3
ISO-25 0.5
100
AcDbAlignedDimension
 13
429.5
 23
31.0
 14
429.5
 24
-31.0
 50
270.0
100
AcDbRotatedDimension
1001
ACAD
1000
DSTYLE
1002
{
1070
    47
1040
-0.01
1070
    48
1040
0.023
1070
    71
1070
     1
1070
   146
1040
0.8333333333333334
1002
}
  0
DIMENSION
  5
202
330
20
100
AcDbEntity
  8
0
  6
CONTINUOUS
370
     0
 62
     1
100
AcDbDimension
  2
*D12
 10
250.0
 20
-153.5
 11
249.0
 21
-124.5625
 70
    32
 42
65.0
  3
ISO-25 0.5
100
AcDbAlignedDimension
 13
271.0
 23
-88.5
 14
271.0
 24
-153.5
 50
270.0
100
AcDbRotatedDimension
  0
DIMENSION
  5
214
330
20
100
AcDbEntity
  8
0
  6
CONTINUOUS
370
     0
 62
     1
100
AcDbDimension
  2
*D13
 10
288.5
 20
-180.0
 11
272.0625
 21
-179.0
 70
    32
 42
17.5
  3
ISO-25 0.5
100
AcDbAlignedDimension
 13
271.0
 23
-153.5
 14
288.5
 24
-133.5
 50
0.0
100
AcDbRotatedDimension
  0
DIMENSION
  5
224
330
20
100
AcDbEntity
  8
0
  6
CONTINUOUS
370
     0
 62
     1
100
AcDbDimension
  2
*D14
 10
297.5
 20
-200.0
 11
276.5625
 21
-199.0
 70
    32
 42
26.5
  3
ISO-25 0.5
100
AcDbAlignedDimension
 13
271.0
 23
-153.5
 14
297.5
 24
-153.5
 50
0.0
100
AcDbRotatedDimension
  0
DIMENSION
  5
234
330
20
100
AcDbEntity
  8
0
  6
CONTINUOUS
370
     0
 62
     1
100
AcDbDimension
  2
*D15
 10
322.5
 20
-200.0
 11
306.4375
 21
-199.0
 70
    32
 42
25.0
  3
ISO-25 0.5
100
AcDbAlignedDimension
 13
297.5
 23
-153.5
 14
322.5
 24
-153.5
 50
0.0
100
AcDbRotatedDimension
  0
DIMENSION
  5
244
330
20
100
AcDbEntity
  8
0
  6
CONTINUOUS
370
     0
 62
     1
100
AcDbDimension
  2
*D16
 10
271.0
 20
-220.0
 11
296.4375
 21
-219.0
 70
    32
 42
58.0
  3
ISO-25 0.5
100
AcDbAlignedDimension
 13
329.0
 23
-153.5
 14
271.0
 24
-153.5
 50
180.0
100
AcDbRotatedDimension
  0
DIMENSION
  5
254
330
20
100
AcDbEntity
  8
0
  6
CONTINUOUS
370
     0
 62
     1
100
AcDbDimension
  2
*D17
 10
350.0
 20
-58.5
 11
349.0
 21
-109.5625
 70
    32
 42
95.0
  3
ISO-25 0.5
100
AcDbAlignedDimension
 13
329.0
 23
-153.5
 14
329.0
 24
-58.5
 50
90.0
100
AcDbRotatedDimension
  0
DIMENSION
  5
266
330
20
100
AcDbEntity
  8
0
  6
CONTINUOUS
370
     0
 62
     1
100
AcDbDimension
  2
*D18
 10
100.0
 20
-130.0
 11
91.4375
 21
-129.0
 70
    32
 42
10.0
  3
ISO-25 0.5
100
AcDbAlignedDimension
 13
90.0
 23
-143.5
 14
100.0
 24
-143.5
 50
0.0
100
AcDbRotatedDimension
  0
DIMENSION
  5
278
330
20
100
AcDbEntity
  8
0
  6
CONTINUOUS
370
     0
 62
     1
100
AcDbDimension
  2
*D19
 10
-100.0
 20
-130.0
 11
-98.5625
 21
-129.0
 70
    32
 42
10.0
  3
ISO-25 0.5
100
AcDbAlignedDimension
 13
-90.0
 23
-143.5
 14
-100.0
 24
-143.5
 50
180.0
100
AcDbRotatedDimension
  0
DIMENSION
  5
288
330
20
100
AcDbEntity
  8
0
  6
CONTINUOUS
370
     0
 62
     1
100
AcDbDimension
  2
*D20
 10
75.0
 20
-180.0
 11
-5.625
 21
-179.0
 70
    32
 42
150.0
  3
ISO-25 0.5
100
AcDbAlignedDimension
 13
-75.0
 23
-143.5
 14
75.0
 24
-143.5
 50
0.0
100
AcDbRotatedDimension
  0
DIMENSION
  5
298
330
20
100
AcDbEntity
  8
0
  6
CONTINUOUS
370
     0
 62
     1
100
AcDbDimension
  2
*D21
 10
95.0
 20
-200.0
 11
-5.625
 21
-199.0
 70
    32
 42
190.0
  3
ISO-25 0.5
100
AcDbAlignedDimension
 13
-95.0
 23
-158.5
 14
95.0
 24
-158.5
 50
0.0
100
AcDbRotatedDimension
  0
DIMENSION
  5
2A8
330
20
100
AcDbEntity
  8
0
  6
CONTINUOUS
370
     0
 62
     1
100
AcDbDimension
  2
*D22
 10
105.0
 20
-220.0
 11
-5.625
 21
-219.0
 70
    32
 42
210.0
  3
ISO-25 0.5
100
AcDbAlignedDimension
 13
-105.0
 23
-153.5
 14
105.0
 24
-153.5
 50
0.0
100
AcDbRotatedDimension
  0
CIRCLE
  5
2A9
330
20
100
AcDbEntity
  8
0
  6
CONTINUOUS
370
     0
 62
     1
100
AcDbCircle
 10
0.0
 20
46.0
 40
8.75
  0
CIRCLE
  5
2AA
330
20
100
AcDbEntity
  8
0
  6
CONTINUOUS
370
     0
 62
     1
100
AcDbCircle
 10
-46.0
 20
0.0
 40
8.75
  0
CIRCLE
  5
2AB
330
20
100
AcDbEntity
  8
0
  6
CONTINUOUS
370
     0
 62
     1
100
AcDbCircle
 10
0.0
 20
-46.0
 40
8.75
  0
CIRCLE
  5
2AC
330
20
100
AcDbEntity
  8
0
  6
CONTINUOUS
370
     0
 62
     1
100
AcDbCircle
 10
46.0
 20
0.0
 40
8.75
  0
CIRCLE
  5
2AD
330
20
100
AcDbEntity
  8
0
  6
CONTINUOUS
370
     0
 62
     1
100
AcDbCircle
 10
17.603441918864
 20
42.4984601577788
 40
5.0
  0
CIRCLE
  5
2AE
330
20
100
AcDbEntity
  8
0
  6
CONTINUOUS
370
     0
 62
     1
100
AcDbCircle
 10
-17.6034338587243
 20
-42.4984568332596
 40
5.0
  0
CIRCLE
  5
2AF
330
20
100
AcDbEntity
  8
0
  6
CONTINUOUS
370
     0
 62
     1
100
AcDbCircle
 10
42.498462525589
 20
-17.6034362265345
 40
5.0
  0
CIRCLE
  5
2B0
330
20
100
AcDbEntity
  8
0
  6
CONTINUOUS
370
     0
 62
     1
100
AcDbCircle
 10
-42.4984544654494
 20
17.6034395510537
 40
5.0
  0
CIRCLE
  5
2B1
330
20
100
AcDbEntity
  8
0
  6
CONTINUOUS
370
     0
 62
     1
100
AcDbCircle
 10
17.603441918864
 20
42.4984601577788
 40
4.0
  0
CIRCLE
  5
2B2
330
20
100
AcDbEntity
  8
0
  6
CONTINUOUS
370
     0
 62
     1
100
AcDbCircle
 10
-42.4984544654494
 20
17.6034395510537
 40
4.0
  0
CIRCLE
  5
2B3
330
20
100
AcDbEntity
  8
0
  6
CONTINUOUS
370
     0
 62
     1
100
AcDbCircle
 10
-17.6034338587243
 20
-42.4984568332596
 40
4.0
  0
CIRCLE
  5
2B4
330
20
100
AcDbEntity
  8
0
  6
CONTINUOUS
370
     0
 62
     1
100
AcDbCircle
 10
42.498462525589
 20
-17.6034362265345
 40
4.0
  0
CIRCLE
  5
2B5
330
20
100
AcDbEntity
  8
0
  6
CONTINUOUS
370
     0
 62
     1
100
AcDbCircle
 10
-17.6034409759739
 20
42.4984554175506
 40
4.0
  0
CIRCLE
  5
2B6
330
20
100
AcDbEntity
  8
0
  6
CONTINUOUS
370
     0
 62
     1
100
AcDbCircle
 10
-17.6034409759739
 20
42.4984554175506
 40
5.0
  0
CIRCLE
  5
2B7
330
20
100
AcDbEntity
  8
0
  6
CONTINUOUS
370
     0
 62
     1
100
AcDbCircle
 10
-42.498461582699
 20
-17.6034409667627
 40
4.0
  0
CIRCLE
  5
2B8
330
20
100
AcDbEntity
  8
0
  6
CONTINUOUS
370
     0
 62
     1
100
AcDbCircle
 10
-42.498461582699
 20
-17.6034409667627
 40
5.0
  0
CIRCLE
  5
2B9
330
20
100
AcDbEntity
  8
0
  6
CONTINUOUS
370
     0
 62
     1
100
AcDbCircle
 10
17.6034348016143
 20
-42.4984615734878
 40
4.0
  0
CIRCLE
  5
2BA
330
20
100
AcDbEntity
  8
0
  6
CONTINUOUS
370
     0
 62
     1
100
AcDbCircle
 10
17.6034348016143
 20
-42.4984615734878
 40
5.0
  0
CIRCLE
  5
2BB
330
20
100
AcDbEntity
  8
0
  6
CONTINUOUS
370
     0
 62
     1
100
AcDbCircle
 10
42.4984554083394
 20
17.6034348108255
 40
5.0
  0
CIRCLE
  5
2BC
330
20
100
AcDbEntity
  8
0
  6
CONTINUOUS
370
     0
 62
     1
100
AcDbCircle
 10
42.4984554083394
 20
17.6034348108255
 40
4.0
  0
CIRCLE
  5
2BD
330
20
100
AcDbEntity
  8
0
  6
CONTINUOUS
370
     0
 62
     1
100
AcDbCircle
 10
0.0
 20
46.0
 40
5.25
  0
CIRCLE
  5
2BE
330
20
100
AcDbEntity
  8
0
  6
CONTINUOUS
370
     0
 62
     1
100
AcDbCircle
 10
-46.0
 20
0.0
 40
5.25
  0
CIRCLE
  5
2BF
330
20
100
AcDbEntity
  8
0
  6
CONTINUOUS
370
     0
 62
     1
100
AcDbCircle
 10
0.0
 20
-46.0
 40
5.25
  0
CIRCLE
  5
2C0
330
20
100
AcDbEntity
  8
0
  6
CONTINUOUS
370
     0
 62
     1
100
AcDbCircle
 10
46.0
 20
0.0
 40
5.25
  0
CIRCLE
  5
2C1
330
20
100
AcDbEntity
  8
0
  6
CONTINUOUS
370
     0
 62
     1
100
AcDbCircle
 10
-32.5269166960556
 20
32.5269048315279
 40
5.25
  0
CIRCLE
  5
2C2
330
20
100
AcDbEntity
  8
0
  6
CONTINUOUS
370
     0
 62
     1
100
AcDbCircle
 10
-32.5269166960556
 20
32.5269048315279
 40
8.75
  0
CIRCLE
  5
2C3
330
20
100
AcDbEntity
  8
0
  6
CONTINUOUS
370
     0
 62
     1
100
AcDbCircle
 10
-32.5269166960556
 20
-32.5269190376345
 40
8.75
  0
CIRCLE
  5
2C4
330
20
100
AcDbEntity
  8
0
  6
CONTINUOUS
370
     0
 62
     1
100
AcDbCircle
 10
-32.5269166960556
 20
-32.5269190376345
 40
5.25
  0
CIRCLE
  5
2C5
330
20
100
AcDbEntity
  8
0
  6
CONTINUOUS
370
     0
 62
     1
100
AcDbCircle
 10
32.5269071731067
 20
-32.5269190376345
 40
8.75
  0
CIRCLE
  5
2C6
330
20
100
AcDbEntity
  8
0
  6
CONTINUOUS
370
     0
 62
     1
100
AcDbCircle
 10
32.5269071731067
 20
-32.5269190376345
 40
5.25
  0
CIRCLE
  5
2C7
330
20
100
AcDbEntity
  8
0
  6
CONTINUOUS
370
     0
 62
     1
100
AcDbCircle
 10
32.5269071731067
 20
32.5269048315279
 40
5.25
  0
CIRCLE
  5
2C8
330
20
100
AcDbEntity
  8
0
  6
CONTINUOUS
370
     0
 62
     1
100
AcDbCircle
 10
32.5269071731067
 20
32.5269048315279
 40
8.75
  0
LINE
  5
2C9
330
20
100
AcDbEntity
  8
0
  6
CENTER
370
     0
 62
     1
100
AcDbLine
 10
302.5
 20
46.0
 11
320.5
 21
46.0
  0
LINE
  5
2CA
330
20
100
AcDbEntity
  8
0
  6
CENTER
370
     0
 62
     1
100
AcDbLine
 10
302.5
 20
-46.0
 11
320.5
 21
-46.0
  0
LINE
  5
2CB
330
20
100
AcDbEntity
  8
0
  6
DASHED
370
     0
 62
     1
100
AcDbLine
 10
305.0
 20
54.75
 11
315.0
 21
54.75
  0
LINE
  5
2CC
330
20
100
AcDbEntity
  8
0
  6
DASHED
370
     0
 62
     1
100
AcDbLine
 10
305.0
 20
37.25
 11
315.0
 21
37.25
  0
LINE
  5
2CD
330
20
100
AcDbEntity
  8
0
  6
DASHED
370
     0
 62
     1
100
AcDbLine
 10
305.0
 20
-37.25
 11
315.0
 21
-37.25
  0
LINE
  5
2CE
330
20
100
AcDbEntity
  8
0
  6
DASHED
370
     0
 62
     1
100
AcDbLine
 10
305.0
 20
-54.75
 11
315.0
 21
-54.75
  0
LINE
  5
2CF
330
20
100
AcDbEntity
  8
0
  6
DASHED
370
     0
 62
     1
100
AcDbLine
 10
465.0
 20
54.75
 11
465.0
 21
37.25
  0
LINE
  5
2D0
330
20
100
AcDbEntity
  8
0
  6
DASHED
370
     0
 62
     1
100
AcDbLine
 10
465.0
 20
-37.25
 11
465.0
 21
-54.75
  0
LINE
  5
2D1
330
20
100
AcDbEntity
  8
0
  6
DASHED
370
     0
 62
     1
100
AcDbLine
 10
432.0
 20
-37.25
 11
445.0
 21
-37.25
  0
LINE
  5
2D2
330
20
100
AcDbEntity
  8
0
  6
DASHED
370
     0
 62
     1
100
AcDbLine
 10
455.0
 20
-37.25
 11
465.0
 21
-37.25
  0
LINE
  5
2D3
330
20
100
AcDbEntity
  8
0
  6
DASHED
370
     0
 62
     1
100
AcDbLine
 10
432.0
 20
-54.75
 11
445.0
 21
-54.75
  0
LINE
  5
2D4
330
20
100
AcDbEntity
  8
0
  6
DASHED
370
     0
 62
     1
100
AcDbLine
 10
455.0
 20
-54.75
 11
465.0
 21
-54.75
  0
LINE
  5
2D5
330
20
100
AcDbEntity
  8
0
  6
DASHED
370
     0
 62
     1
100
AcDbLine
 10
432.0
 20
54.75
 11
445.0
 21
54.75
  0
LINE
  5
2D6
330
20
100
AcDbEntity
  8
0
  6
DASHED
370
     0
 62
     1
100
AcDbLine
 10
455.0
 20
54.75
 11
465.0
 21
54.75
  0
LINE
  5
2D7
330
20
100
AcDbEntity
  8
0
  6
DASHED
370
     0
 62
     1
100
AcDbLine
 10
432.0
 20
37.25
 11
445.0
 21
37.25
  0
LINE
  5
2D8
330
20
100
AcDbEntity
  8
0
  6
DASHED
370
     0
 62
     1
100
AcDbLine
 10
455.0
 20
37.25
 11
465.0
 21
37.25
  0
LINE
  5
2D9
330
20
100
AcDbEntity
  8
0
  6
DASHED
370
     0
 62
     1
100
AcDbLine
 10
465.0
 20
-40.75
 11
468.0
 21
-40.75
  0
LINE
  5
2DA
330
20
100
AcDbEntity
  8
0
  6
DASHED
370
     0
 62
     1
100
AcDbLine
 10
465.0
 20
-51.25
 11
468.0
 21
-51.25
  0
LINE
  5
2DB
330
20
100
AcDbEntity
  8
0
  6
DASHED
370
     0
 62
     1
100
AcDbLine
 10
315.0
 20
51.25
 11
318.0
 21
51.25
  0
LINE
  5
2DC
330
20
100
AcDbEntity
  8
0
  6
DASHED
370
     0
 62
     1
100
AcDbLine
 10
315.0
 20
40.75
 11
318.0
 21
40.75
  0
LINE
  5
2DD
330
20
100
AcDbEntity
  8
0
  6
DASHED
370
     0
 62
     1
100
AcDbLine
 10
315.0
 20
-40.75
 11
318.0
 21
-40.75
  0
LINE
  5
2DE
330
20
100
AcDbEntity
  8
0
  6
DASHED
370
     0
 62
     1
100
AcDbLine
 10
315.0
 20
-51.25
 11
318.0
 21
-51.25
  0
LINE
  5
2DF
330
20
100
AcDbEntity
  8
0
  6
DASHED
370
     0
 62
     1
100
AcDbLine
 10
315.0
 20
54.75
 11
315.0
 21
37.25
  0
LINE
  5
2E0
330
20
100
AcDbEntity
  8
0
  6
DASHED
370
     0
 62
     1
100
AcDbLine
 10
315.0
 20
-37.25
 11
315.0
 21
-54.75
  0
LINE
  5
2E1
330
20
100
AcDbEntity
  8
0
  6
DASHED
370
     0
 62
     1
100
AcDbLine
 10
465.0
 20
51.25
 11
468.0
 21
51.25
  0
LINE
  5
2E2
330
20
100
AcDbEntity
  8
0
  6
DASHED
370
     0
 62
     1
100
AcDbLine
 10
465.0
 20
40.75
 11
468.0
 21
40.75
  0
LINE
  5
2E3
330
20
100
AcDbEntity
  8
0
  6
CENTER
370
     0
 62
     1
100
AcDbLine
 10
429.5
 20
46.0
 11
447.5
 21
46.0
  0
LINE
  5
2E4
330
20
100
AcDbEntity
  8
0
  6
CENTER
370
     0
 62
     1
100
AcDbLine
 10
452.5
 20
46.0
 11
470.5
 21
46.0
  0
LINE
  5
2E5
330
20
100
AcDbEntity
  8
0
  6
CENTER
370
     0
 62
     1
100
AcDbLine
 10
429.5
 20
-46.0
 11
447.5
 21
-46.0
  0
LINE
  5
2E6
330
20
100
AcDbEntity
  8
0
  6
CENTER
370
     0
 62
     1
100
AcDbLine
 10
452.5
 20
-46.0
 11
470.5
 21
-46.0
  0
DIMENSION
  5
2F2
330
20
100
AcDbEntity
  8
0
  6
CONTINUOUS
370
     0
 62
     1
100
AcDbDimension
  2
*D23
 10
4.24937564781303
 20
53.6488761660635
 11
31.0
 21
108.5
 70
    35
 42
17.50000000000008
  3
ISO-25 0.5
100
AcDbDiametricDimension
 15
-4.24937564781303
 25
38.3511238339365
  0
DIMENSION
  5
2FE
330
20
100
AcDbEntity
  8
0
  6
CONTINUOUS
370
     0
 62
     1
100
AcDbDimension
  2
*D24
 10
47.0209741891444
 20
19.7357630869749
 11
91.0
 21
48.5
 70
    35
 42
9.999999999999995
  3
ISO-25 0.5
100
AcDbDiametricDimension
 15
37.9759366275344
 25
15.4711065346762
  0
DIMENSION
  5
30A
330
20
100
AcDbEntity
  8
0
  6
CONTINUOUS
370
     0
 62
     1
100
AcDbDimension
  2
*D25
 10
-33.8430605170349
 20
37.6092532495821
 11
-152.625
 21
108.5
 70
    35
 42
10.50000000000008
  3
ISO-25 0.5
100
AcDbDiametricDimension
 15
-31.2107728750764
 25
27.4445564134736
  0
MTEXT
  5
30B
330
20
100
AcDbEntity
  8
0
  6
CONTINUOUS
370
     0
 62
     1
100
AcDbMText
 10
-91.0
 20
41.0
 40
6.0
 41
0.0
 71
     9
 72
     1
  1
{\W1;ローター部}
 11
1.0
 21
0.0
  7
BIGFONT
  0
LEADER
  5
30C
330
20
100
AcDbEntity
  8
0
  6
CONTINUOUS
370
     0
 62
     1
100
AcDbLeader
  3
ISO-25 0.5
 73
     3
 76
     3
 10
-40.0
 20
10.0
 10
-90.0
 20
40.0
 10
-126.5
 20
40.0
 71
     1
1001
ACAD
1000
DSTYLE
1002
{
1070
   147
1040
0.625
1070
    77
1070
     0
1070
   341
1005
30D
1002
}
  0
INSERT
  5
310
102
{ACAD_REACTORS
330
30F
102
}
330
20
100
AcDbEntity
  8
0
  6
CONTINUOUS
370
     0
 62
     1
100
AcDbBlockReference
  2
LDR1
 10
-110.0
 20
-100.0
 41
1.0
 42
1.0
 50
0.0
  0
LEADER
  5
30F
330
20
100
AcDbEntity
  8
0
  6
CONTINUOUS
370
     0
 62
     1
100
AcDbLeader
  3
ISO-25 0.5
 73
     2
 76
     2
 10
-88.0
 20
-118.5
 10
-110.0
 20
-100.0
 71
     1
340
310
1001
ACAD
1000
DSTYLE
1002
{
1070
   147
1040
0.625
1070
    77
1070
     0
1070
   341
1005
30D
1002
}
  0
TEXT
  5
316
330
20
100
AcDbEntity
  8
0
  6
CONTINUOUS
370
     0
 62
     1
100
AcDbText
 10
-199.0
 20
-109.0
 40
6.0
 41
0.9352226720647774
 50
0.0
 51
0.0
  7
BIGFONT
  1
（レセプタクルキャップ付）
100
AcDbText
  0
MTEXT
  5
317
330
20
100
AcDbEntity
  8
0
  6
CONTINUOUS
370
     0
 62
     1
100
AcDbMText
 10
419.0
 20
-89.0
 40
6.0
 41
0.0
 71
     9
 72
     1
  1
{\W1;コイル装着部}
 11
1.0
 21
0.0
  7
BIGFONT
  0
LEADER
  5
318
330
20
100
AcDbEntity
  8
0
  6
CONTINUOUS
370
     0
 62
     1
100
AcDbLeader
  3
ISO-25 0.5
 73
     3
 76
     3
 10
440.0
 20
-60.0
 10
420.0
 20
-90.0
 10
376.375
 20
-90.0
 71
     1
1001
ACAD
1000
DSTYLE
1002
{
1070
   147
1040
0.625
1070
    77
1070
     0
1070
   341
1005
30D
1002
}
  0
MTEXT
  5
319
330
20
100
AcDbEntity
  8
0
  6
CONTINUOUS
370
     0
 62
     1
100
AcDbMText
 10
431.0
 20
-109.0
 40
6.0
 41
0.0
 71
     7
 72
     1
  1
{\W0.947368;\Lローター部　詳細}
 11
1.0
 21
0.0
  7
BIGFONT
  0
MTEXT
  5
31A
330
20
100
AcDbEntity
  8
0
  6
CONTINUOUS
370
     0
 62
     1
100
AcDbMText
 10
481.0
 20
-89.0
 40
6.0
 41
0.0
 71
     7
 72
     1
  1
{\W1;ガイドロッド装着部}
 11
1.0
 21
0.0
  7
BIGFONT
  0
LEADER
  5
31B
330
20
100
AcDbEntity
  8
0
  6
CONTINUOUS
370
     0
 62
     1
100
AcDbLeader
  3
ISO-25 0.5
 73
     3
 76
     3
 10
460.0
 20
-58.5
 10
480.0
 20
-90.0
 10
545.0
 20
-90.0
 71
     1
1001
ACAD
1000
DSTYLE
1002
{
1070
   147
1040
0.625
1070
    77
1070
     0
1070
   341
1005
30D
1002
}
  0
DIMENSION
  5
32D
330
20
100
AcDbEntity
  8
0
  6
CONTINUOUS
370
     0
 62
     1
100
AcDbDimension
  2
*D26
 10
432.0
 20
10.0
 11
407.25
 21
11.0
 70
    32
 42
2.5
  3
ISO-25 0.5
100
AcDbAlignedDimension
 13
429.5
 23
0.0
 14
432.0
 24
0.0
 50
0.0
100
AcDbRotatedDimension
  0
DIMENSION
  5
33F
330
20
100
AcDbEntity
  8
0
  6
CONTINUOUS
370
     0
 62
     1
100
AcDbDimension
  2
*D27
 10
468.0
 20
10.0
 11
479.0
 21
11.0
 70
    32
 42
3.0
  3
ISO-25 0.5
100
AcDbAlignedDimension
 13
465.0
 23
0.0
 14
468.0
 24
0.0
 50
0.0
100
AcDbRotatedDimension
  0
DIMENSION
  5
352
330
20
100
AcDbEntity
  8
0
  6
CONTINUOUS
370
     0
 62
     1
100
AcDbDimension
  2
*D28
 10
500.0
 20
-31.0
 11
496.5
 21
-25.15625
 70
    32
 42
62.0
  3
ISO-25 0.5
100
AcDbAlignedDimension
 13
468.0
 23
31.0
 14
468.0
 24
-31.0
 50
270.0
100
AcDbRotatedDimension
1001
ACAD
1000
DSTYLE
1002
{
1070
    47
1040
0.013
1070
    71
1070
     1
1070
   146
1040
0.8333333333333334
1002
}
  0
DIMENSION
  5
362
330
20
100
AcDbEntity
  8
0
  6
CONTINUOUS
370
     0
 62
     1
100
AcDbDimension
  2
*D29
 10
520.0
 20
-55.5
 11
519.0
 21
-7.6875
 70
    32
 42
111.0
  3
ISO-25 0.5
100
AcDbAlignedDimension
 13
468.0
 23
55.5
 14
468.0
 24
-55.5
 50
270.0
100
AcDbRotatedDimension
  0
DIMENSION
  5
374
330
20
100
AcDbEntity
  8
0
  6
CONTINUOUS
370
     0
 62
     1
100
AcDbDimension
  2
*D30
 10
500.0
 20
-58.5
 11
499.0
 21
-72.5
 70
    32
 42
3.0
  3
ISO-25 0.5
100
AcDbAlignedDimension
 13
468.0
 23
-55.5
 14
479.0
 24
-58.5
 50
270.0
100
AcDbRotatedDimension
  0
INSERT
  5
377
102
{ACAD_REACTORS
330
376
102
}
330
20
100
AcDbEntity
  8
0
  6
CONTINUOUS
370
     0
 62
     1
100
AcDbBlockReference
  2
LDR2
 10
350.0
 20
-180.0
 41
1.0
 42
1.0
 50
0.0
  0
LEADER
  5
376
330
20
100
AcDbEntity
  8
0
  6
CONTINUOUS
370
     0
 62
     1
100
AcDbLeader
  3
ISO-25 0.5
 73
     2
 76
     2
 10
310.0
 20
-153.5
 10
350.0
 20
-180.0
 71
     1
340
377
1001
ACAD
1000
DSTYLE
1002
{
1070
   147
1040
0.625
1070
    77
1070
     0
1070
   341
1005
30D
1002
}
  0
LINE
  5
37D
330
20
100
AcDbEntity
  8
0
  6
CENTER
370
     0
 62
     1
100
AcDbLine
 10
279.5
 20
70.0
 11
300.5
 21
70.0
  0
LINE
  5
37E
330
20
100
AcDbEntity
  8
0
  6
CENTER
370
     0
 62
     1
100
AcDbLine
 10
290.0
 20
59.5
 11
290.0
 21
80.5
  0
DIMENSION
  5
38C
330
20
100
AcDbEntity
  8
0
  6
CONTINUOUS
370
     0
 62
     1
100
AcDbDimension
  2
*D31
 10
-75.99500236604629
 20
15.1990004732093
 11
-107.3554000854492
 21
22.44846916198731
 70
    35
 42
155.0
  3
ISO-25 0.5
100
AcDbDiametricDimension
 15
75.99500236604629
 25
-15.1990004732093
  0
INSERT
  5
38F
102
{ACAD_REACTORS
330
38E
102
}
330
20
100
AcDbEntity
  8
0
  6
CONTINUOUS
370
     0
 62
     1
100
AcDbBlockReference
  2
LDR3
 10
349.875
 20
100.0
 41
1.0
 42
1.0
 50
0.0
  0
LEADER
  5
38E
330
20
100
AcDbEntity
  8
0
  6
CONTINUOUS
370
     0
 62
     1
100
AcDbLeader
  3
ISO-25 0.5
 73
     2
 76
     2
 10
432.0
 20
100.0
 10
349.875
 20
100.0
 71
     1
340
38F
1001
ACAD
1000
DSTYLE
1002
{
1070
   147
1040
0.625
1070
    77
1070
     0
1070
   341
1005
30D
1002
}
  0
LINE
  5
394
330
20
100
AcDbEntity
  8
0
  6
CENTER
370
     0
 62
     1
100
AcDbLine
 10
0.0
 20
-158.5
 11
0.0
 21
82.5
  0
ARC
  5
395
330
20
100
AcDbEntity
  8
0
  6
CONTINUOUS
370
     0
 62
     1
100
AcDbCircle
 10
0.0
 20
0.0
 40
66.5
100
AcDbArc
 50
0.0
 51
255.9124226204961
  0
ARC
  5
396
330
20
100
AcDbEntity
  8
0
  6
CONTINUOUS
370
     0
 62
     1
100
AcDbCircle
 10
0.0
 20
0.0
 40
66.5
100
AcDbArc
 50
284.0875773795039
 51
0.0
  0
LINE
  5
397
330
20
100
AcDbEntity
  8
0
  6
CONTINUOUS
370
     0
 62
     1
100
AcDbLine
 10
432.0
 20
66.5
 11
449.0
 21
66.5
  0
DIMENSION
  5
3A9
330
20
100
AcDbEntity
  8
0
  6
CONTINUOUS
370
     0
 62
     1
100
AcDbDimension
  2
*D32
 10
400.0
 20
66.5
 11
399.0
 21
62.0
 70
    32
 42
6.0
  3
ISO-25 0.5
100
AcDbAlignedDimension
 13
432.5
 23
60.5
 14
432.0
 24
66.5
 50
90.0
100
AcDbRotatedDimension
  0
HATCH
  5
3AA
330
20
100
AcDbEntity
  8
0
  6
CONTINUOUS
370
     0
 62
     1
100
AcDbHatch
 10
0.0
 20
0.0
 30
0.0
210
0.0
220
0.0
230
1.0
  2
_U
 70
     0
 71
     0
 91
        1
 92
        5
 93
        4
 72
     1
 10
432.0
 20
66.5
 11
449.0
 21
66.5
 72
     1
 10
449.0
 20
66.5
 11
449.0
 21
77.5
 72
     1
 10
449.0
 20
77.5
 11
432.0
 21
77.5
 72
     1
 10
432.0
 20
77.5
 11
432.0
 21
66.5
 97
        0
 75
     0
 76
     0
 52
45.0
 41
4.0
 77
     0
 78
     1
 53
45.0
 43
0.0
 44
0.0
 45
-2.82842712474619
 46
2.82842712474619
 79
     0
 47
0.322189
 98
        1
 10
0.0
 20
0.0
  0
MTEXT
  5
3AB
330
20
100
AcDbEntity
  8
0
  6
CONTINUOUS
370
     0
 62
     1
100
AcDbMText
 10
-91.0
 20
61.0
 40
6.0
 41
0.0
 71
     9
 72
     1
  1
{\W1;ステーター部}
 11
1.0
 21
0.0
  7
BIGFONT
  0
LEADER
  5
3AC
330
20
100
AcDbEntity
  8
0
  6
CONTINUOUS
370
     0
 62
     1
100
AcDbLeader
  3
ISO-25 0.5
 73
     3
 76
     3
 10
-60.0
 20
40.0
 10
-90.0
 20
60.0
 10
-133.625
 20
60.0
 71
     1
1001
ACAD
1000
DSTYLE
1002
{
1070
   147
1040
0.625
1070
    77
1070
     0
1070
   341
1005
30D
1002
}
  0
TEXT
  5
3AD
330
20
100
AcDbEntity
  8
0
  6
CONTINUOUS
370
     0
 62
     1
100
AcDbText
 10
139.8125
 20
-279.0
 40
18.0
 41
0.7236842105263158
 50
0.0
 51
0.0
  7
STANDARD
 72
     1
 11
200.0
 21
-270.0
  1
TMHS-500NM
100
AcDbText
 73
     2
  0
LINE
  5
3AE
330
20
100
AcDbEntity
  8
0
  6
CONTINUOUS
370
     0
 62
     1
100
AcDbLine
 10
138.8125
 20
-280.0
 11
261.1875
 21
-280.0
  0
LINE
  5
3AF
330
20
100
AcDbEntity
  8
0
  6
CONTINUOUS
370
     0
 62
     1
100
AcDbLine
 10
261.1875
 20
-280.0
 11
261.1875
 21
-260.0
  0
LINE
  5
3B0
330
20
100
AcDbEntity
  8
0
  6
CONTINUOUS
370
     0
 62
     1
100
AcDbLine
 10
261.1875
 20
-260.0
 11
138.8125
 21
-260.0
  0
LINE
  5
3B1
330
20
100
AcDbEntity
  8
0
  6
CONTINUOUS
370
     0
 62
     1
100
AcDbLine
 10
138.8125
 20
-260.0
 11
138.8125
 21
-280.0
  0
ENDSEC
  0
SECTION
  2
OBJECTS
  0
DICTIONARY
  5
C
100
AcDbDictionary
281
     1
  3
ACAD_GROUP
350
D
  3
ACAD_MLINESTYLE
350
E
  3
ACDBVARIABLEDICTIONARY
350
3B2
  3
ACAD_PLOTSTYLENAME
350
3B3
  3
ACAD_LAYOUT
350
3B4
  3
ACAD_PLOTSETTINGS
350
3B5
  0
DICTIONARY
  5
D
102
{ACAD_REACTORS
330
C
102
}
330
C
100
AcDbDictionary
281
     1
  0
DICTIONARY
  5
E
102
{ACAD_REACTORS
330
C
102
}
330
C
100
AcDbDictionary
281
     1
  3
STANDARD
350
13
  0
DICTIONARY
  5
3B2
102
{ACAD_REACTORS
330
C
102
}
330
C
100
AcDbDictionary
281
     1
  3
SORTENTS
350
3B6
  0
ACDBDICTIONARYWDFLT
  5
3B3
102
{ACAD_REACTORS
330
C
102
}
330
C
100
AcDbDictionary
281
     1
  3
Normal
350
3B7
100
AcDbDictionaryWithDefault
340
3B7
  0
DICTIONARY
  5
3B4
102
{ACAD_REACTORS
330
C
102
}
330
C
100
AcDbDictionary
281
     1
  3
Model
350
3B8
  0
DICTIONARY
  5
3B5
102
{ACAD_REACTORS
330
C
102
}
330
C
100
AcDbDictionary
281
     1
  0
MLINESTYLE
  5
13
102
{ACAD_REACTORS
330
E
102
}
330
E
100
AcDbMlineStyle
  2
STANDARD
 70
     0
  3

 62
   256
 51
90.0
 52
90.0
 71
     2
 49
0.5
 62
   256
  6
BYLAYER
 49
-0.5
 62
   256
  6
BYLAYER
  0
DICTIONARYVAR
  5
3B6
102
{ACAD_REACTORS
330
3B2
102
}
330
3B2
100
DictionaryVariables
280
     0
  1
96
  0
ACDBPLACEHOLDER
  5
3B7
102
{ACAD_REACTORS
330
3B3
102
}
330
3B3
  0
LAYOUT
  5
3B8
102
{ACAD_REACTORS
330
3B4
102
}
330
3B4
100
AcDbPlotSettings
  1

  2

  4

  6

 40
0.0
 41
0.0
 42
0.0
 43
0.0
 44
0.0
 45
0.0
 46
0.0
 47
0.0
 48
0.0
 49
0.0
140
0.0
141
0.0
142
1.0
143
1.0
 70
  1712
 72
     0
 73
     0
 74
     0
  7

 75
     0
147
1.0
148
0.0
149
0.0
100
AcDbLayout
  1
Model
 70
     1
 71
     0
 10
0.0
 20
0.0
 11
297.0
 21
210.0
 12
0.0
 22
0.0
 32
0.0
 14
0.0
 24
0.0
 34
0.0
 15
0.0
 25
0.0
 35
0.0
146
0.0
 13
0.0
 23
0.0
 33
0.0
 16
1.0
 26
0.0
 36
0.0
 17
0.0
 27
1.0
 37
0.0
 76
     0
330
20
  0
ENDSEC
  0
EOF
