  0
SECTION
  2
HEADER
  9
$ACADVER
  1
AC1015
  9
$ACADMAINTVER
 70
     0
  9
$DWGCODEPAGE
  3
ANSI_932
  9
$INSBASE
 10
0.0
 20
0.0
 30
0.0
  9
$EXTMIN
 10
-7.150000095367432
 20
-4.727713108062744
  9
$EXTMAX
 10
14.47559547424316
 20
16.16385078430176
  9
$LIMMIN
 10
-7.150000095367432
 20
-4.727713108062744
  9
$LIMMAX
 10
14.47559547424316
 20
16.16385078430176
  9
$ORTHOMODE
 70
     0
  9
$REGENMODE
 70
     1
  9
$FILLMODE
 70
     1
  9
$QTEXTMODE
 70
     0
  9
$MIRRTEXT
 70
     1
  9
$LTSCALE
 40
1.0
  9
$OSMODE
 70
     0
  9
$ATTMODE
 70
     1
  9
$TEXTSIZE
 40
3.0
  9
$TRACEWID
 40
0.5
  9
$TEXTSTYLE
  7
STANDARD
  9
$CLAYER
  8
0
  9
$CELTYPE
  6
BYLAYER
  9
$CECOLOR
 62
   256
  9
$CELTSCALE
 40
1.0
  9
$DISPSILH
 70
     0
  9
$DIMSCALE
 40
1.0
  9
$DIMASZ
 40
3.0
  9
$DIMEXO
 40
1.0
  9
$DIMDLI
 40
5.0
  9
$DIMRND
 40
0.0
  9
$DIMDLE
 40
5.0
  9
$DIMEXE
 40
2.0
  9
$DIMTP
 40
0.0
  9
$DIMTM
 40
0.0
  9
$DIMTXT
 40
3.0
  9
$DIMCEN
 40
2.0
  9
$DIMTSZ
 40
0.0
  9
$DIMTOL
 70
     0
  9
$DIMLIM
 70
     0
  9
$DIMTIH
 70
     0
  9
$DIMTOH
 70
     0
  9
$DIMSE1
 70
     0
  9
$DIMSE2
 70
     0
  9
$DIMTAD
 70
     1
  9
$DIMZIN
 70
     8
  9
$DIMBLK
  1

  9
$DIMASO
 70
     1
  9
$DIMSHO
 70
     1
  9
$DIMPOST
  1

  9
$DIMAPOST
  1

  9
$DIMALT
 70
     0
  9
$DIMALTD
 70
     4
  9
$DIMALTF
 40
25.4
  9
$DIMLFAC
 40
1.0
  9
$DIMTOFL
 70
     1
  9
$DIMTVP
 40
1.0
  9
$DIMTIX
 70
     0
  9
$DIMSOXD
 70
     0
  9
$DIMSAH
 70
     0
  9
$DIMBLK1
  1

  9
$DIMBLK2
  1

  9
$DIMSTYLE
  2
ISO-25
  9
$DIMCLRD
 70
     0
  9
$DIMCLRE
 70
     0
  9
$DIMCLRT
 70
     0
  9
$DIMTFAC
 40
1.0
  9
$DIMGAP
 40
0.5
  9
$DIMJUST
 70
     0
  9
$DIMSD1
 70
     0
  9
$DIMSD2
 70
     0
  9
$DIMTOLJ
 70
     1
  9
$DIMTZIN
 70
     1
  9
$DIMALTZ
 70
     0
  9
$DIMALTTZ
 70
     0
  9
$DIMUPT
 70
     0
  9
$DIMDEC
 70
     3
  9
$DIMTDEC
 70
     3
  9
$DIMALTU
 70
     8
  9
$DIMALTTD
 70
     4
  9
$DIMTXSTY
  7
STANDARD
  9
$DIMAUNIT
 70
     0
  9
$DIMADEC
 70
     0
  9
$DIMALTRND
 40
0.0
  9
$DIMAZIN
 70
     0
  9
$DIMDSEP
 70
    46
  9
$DIMATFIT
 70
     3
  9
$DIMFRAC
 70
     0
  9
$DIMLDRBLK
  1

  9
$DIMLUNIT
 70
     2
  9
$DIMLWD
 70
    -2
  9
$DIMLWE
 70
    -2
  9
$DIMTMOVE
 70
     0
  9
$LUNITS
 70
     2
  9
$LUPREC
 70
     4
  9
$SKETCHINC
 40
1.0
  9
$FILLETRAD
 40
0.0
  9
$AUNITS
 70
     0
  9
$AUPREC
 70
     0
  9
$MENU
  1
.
  9
$ELEVATION
 40
0.0
  9
$PELEVATION
 40
0.0
  9
$THICKNESS
 40
0.0
  9
$LIMCHECK
 70
     0
  9
$CHAMFERA
 40
0.0
  9
$CHAMFERB
 40
0.0
  9
$CHAMFERC
 40
0.0
  9
$CHAMFERD
 40
0.0
  9
$SKPOLY
 70
     0
  9
$TDCREATE
 40
2455310.653599537
  9
$TDUCREATE
 40
2455310.653599537
  9
$TDUPDATE
 40
2455310.653599537
  9
$TDUUPDATE
 40
2455310.653599537
  9
$TDINDWG
 40
0.0
  9
$TDUSRTIMER
 40
0.0
  9
$USRTIMER
 70
     1
  9
$ANGBASE
 50
0.0
  9
$ANGDIR
 70
     0
  9
$PDMODE
 70
     0
  9
$PDSIZE
 40
0.0
  9
$PLINEWID
 40
0.0
  9
$SPLFRAME
 70
     0
  9
$SPLINETYPE
 70
     6
  9
$SPLINESEGS
 70
     8
  9
$HANDSEED
  5
18E
  9
$SURFTAB1
 70
     6
  9
$SURFTAB2
 70
     6
  9
$SURFTYPE
 70
     6
  9
$SURFU
 70
     6
  9
$SURFV
 70
     6
  9
$UCSBASE
  2

  9
$UCSNAME
  2

  9
$UCSORG
 10
0.0
 20
0.0
 30
0.0
  9
$UCSXDIR
 10
1.0
 20
0.0
 30
0.0
  9
$UCSYDIR
 10
0.0
 20
1.0
 30
0.0
  9
$UCSORTHOREF
  2

  9
$UCSORTHOVIEW
 70
     0
  9
$UCSORGTOP
 10
0.0
 20
0.0
 30
0.0
  9
$UCSORGBOTTOM
 10
0.0
 20
0.0
 30
0.0
  9
$UCSORGLEFT
 10
0.0
 20
0.0
 30
0.0
  9
$UCSORGRIGHT
 10
0.0
 20
0.0
 30
0.0
  9
$UCSORGFRONT
 10
0.0
 20
0.0
 30
0.0
  9
$UCSORGBACK
 10
0.0
 20
0.0
 30
0.0
  9
$PUCSBASE
  2

  9
$PUCSNAME
  2

  9
$PUCSORG
 10
0.0
 20
0.0
 30
0.0
  9
$PUCSXDIR
 10
1.0
 20
0.0
 30
0.0
  9
$PUCSYDIR
 10
0.0
 20
1.0
 30
0.0
  9
$PUCSORTHOREF
  2

  9
$PUCSORTHOVIEW
 70
     0
  9
$PUCSORGTOP
 10
0.0
 20
0.0
 30
0.0
  9
$PUCSORGBOTTOM
 10
0.0
 20
0.0
 30
0.0
  9
$PUCSORGLEFT
 10
0.0
 20
0.0
 30
0.0
  9
$PUCSORGRIGHT
 10
0.0
 20
0.0
 30
0.0
  9
$PUCSORGFRONT
 10
0.0
 20
0.0
 30
0.0
  9
$PUCSORGBACK
 10
0.0
 20
0.0
 30
0.0
  9
$USERI1
 70
     0
  9
$USERI2
 70
     0
  9
$USERI3
 70
     0
  9
$USERI4
 70
     0
  9
$USERI5
 70
     0
  9
$USERR1
 40
0.0
  9
$USERR2
 40
0.0
  9
$USERR3
 40
0.0
  9
$USERR4
 40
0.0
  9
$USERR5
 40
0.0
  9
$WORLDVIEW
 70
     1
  9
$SHADEDGE
 70
     3
  9
$SHADEDIF
 70
    70
  9
$MAXACTVP
 70
    16
  9
$PINSBASE
 10
0.0
 20
0.0
 30
0.0
  9
$PLIMCHECK
 70
     0
  9
$PEXTMIN
 10
1.000000000000000E+020
 20
1.000000000000000E+020
 30
1.000000000000000E+020
  9
$PEXTMAX
 10
-1.000000000000000E+020
 20
-1.000000000000000E+020
 30
-1.000000000000000E+020
  9
$PLIMMIN
 10
-7.150000095367432
 20
-4.727713108062744
  9
$PLIMMAX
 10
14.47559547424316
 20
16.16385078430176
  9
$UNITMODE
 70
     0
  9
$VISRETAIN
 70
     0
  9
$PLINEGEN
 70
     0
  9
$PSLTSCALE
 70
     0
  9
$TREEDEPTH
 70
  3020
  9
$CMLSTYLE
  2
STANDARD
  9
$CMLJUST
 70
     0
  9
$CMLSCALE
 40
1.0
  9
$PROXYGRAPHICS
 70
     1
  9
$MEASUREMENT
 70
     0
  9
$CELWEIGHT
370
    -3
  9
$ENDCAPS
280
     0
  9
$JOINSTYLE
280
     0
  9
$LWDISPLAY
290
     1
  9
$INSUNITS
 70
     0
  9
$HYPERLINKBASE
  1

  9
$STYLESHEET
  1

  9
$XEDIT
290
     1
  9
$CEPSNTYPE
380
     0
  9
$PSTYLEMODE
290
     1
  9
$FINGERPRINTGUID
  2
{6F25CFC2-5053-11D3-9BE9-00805F4AB38E}
  9
$VERSIONGUID
  2
{6F25CFC5-5053-11D3-9BE9-00805F4AB38E}
  9
$EXTNAMES
290
     1
  9
$PSVPSCALE
 40
0.0
  9
$OLESTARTUP
290
     0
  0
ENDSEC
  0
SECTION
  2
CLASSES
  0
CLASS
  1
LWPOLYLINE
  2
AcDbPolyline
  3
AutoCAD 2000
 90
    32768
280
     0
281
     1
  0
CLASS
  1
DICTIONARYVAR
  2
AcDbDictionaryVar
  3
AutoCAD 2000
 90
        0
280
     0
281
     1
  0
CLASS
  1
ACDBDICTIONARYWDFLT
  2
AcDbDictionaryWithDefault
  3
AutoCAD 2000
 90
        0
280
     0
281
     1
  0
CLASS
  1
ACDBPLACEHOLDER
  2
AcDbPlaceHolder
  3
AutoCAD 2000
 90
        0
280
     0
281
     1
  0
CLASS
  1
LAYOUT
  2
AcDbLayout
  3
AutoCAD 2000
 90
        0
280
     0
281
     1
  0
CLASS
  1
HATCH
  2
AcDbHatch
  3
AutoCAD 2000
 90
        0
280
     0
281
     1
  0
ENDSEC
  0
SECTION
  2
TABLES
  0
TABLE
  2
VPORT
  5
8
100
AcDbSymbolTable
 70
     1
  0
VPORT
  5
180
330
0
100
AcDbSymbolTableRecord
100
AcDbViewportTableRecord
  2
*ACTIVE
 70
     0
 10
0.0
 20
0.0
 11
1.0
 21
1.0
 12
3.662797689437866
 22
5.718068838119507
 13
0.0
 23
0.0
 14
0.0
 24
0.0
 15
0.0
 25
0.0
 16
0.0
 26
0.0
 36
1.0
 17
0.0
 27
0.0
 37
0.0
 40
20.8915638923645
 41
1.5
 42
50.0
 43
0.0
 44
0.0
 50
0.0
 51
0.0
 71
     0
 72
   100
 73
     1
 74
     1
 75
     0
 76
     0
 77
     0
 78
     0
281
     0
 65
     1
110
0.0
120
0.0
130
0.0
111
1.0
121
0.0
131
0.0
112
0.0
122
1.0
132
0.0
 79
     0
146
0.0
  0
ENDTAB
  0
TABLE
  2
LTYPE
  5
5
330
0
100
AcDbSymbolTable
 70
    20
  0
LTYPE
  5
181
330
5
100
AcDbSymbolTableRecord
100
AcDbLinetypeTableRecord
  2
BYBLOCK
 70
     0
  3

 72
    65
 73
     0
 40
0.0
  0
LTYPE
  5
182
330
5
100
AcDbSymbolTableRecord
100
AcDbLinetypeTableRecord
  2
BYLAYER
 70
     0
  3

 72
    65
 73
     0
 40
0.0
  0
LTYPE
  5
183
330
5
100
AcDbSymbolTableRecord
100
AcDbLinetypeTableRecord
  2
CONTINUOUS
 70
    64
  3
solid line
 72
    65
 73
     0
 40
0.0
  0
LTYPE
  5
184
330
0
100
AcDbSymbolTableRecord
100
AcDbLinetypeTableRecord
  2
DASHED
 70
    64
  3
-- -- -- -- -- -- -- -- -- -- 
 72
    65
 73
     2
 40
0.3
 49
0.2
 74
     0
 49
-0.1
 74
     0
  0
LTYPE
  5
185
330
0
100
AcDbSymbolTableRecord
100
AcDbLinetypeTableRecord
  2
CENTER
 70
    64
  3
--- - --- - --- - --- - --- - 
 72
    65
 73
     4
 40
0.6000000000000001
 49
0.3
 74
     0
 49
-0.1
 74
     0
 49
0.1
 74
     0
 49
-0.1
 74
     0
  0
LTYPE
  5
186
330
0
100
AcDbSymbolTableRecord
100
AcDbLinetypeTableRecord
  2
PHANTOM
 70
    64
  3
----- - - ----- - - ----- - - 
 72
    65
 73
     6
 40
0.8
 49
0.3
 74
     0
 49
-0.1
 74
     0
 49
0.1
 74
     0
 49
-0.1
 74
     0
 49
0.1
 74
     0
 49
-0.1
 74
     0
  0
ENDTAB
  0
TABLE
  2
LAYER
  5
2
330
0
100
AcDbSymbolTable
 70
    20
  0
LAYER
  5
187
330
2
100
AcDbSymbolTableRecord
100
AcDbLayerTableRecord
  2
0
 70
    64
 62
     7
  6
CONTINUOUS
370
    -3
390
177
  0
LAYER
  5
188
330
2
100
AcDbSymbolTableRecord
100
AcDbLayerTableRecord
  2
DEFPOINTS
 70
     0
 62
    -7
  6
CONTINUOUS
290
     0
370
    -3
390
177
  0
ENDTAB
  0
TABLE
  2
STYLE
  5
3
330
0
100
AcDbSymbolTable
 70
     4
  0
STYLE
  5
189
330
3
100
AcDbSymbolTableRecord
100
AcDbTextStyleTableRecord
  2
STANDARD
 70
    64
 40
0.0
 41
1.0
 50
0.0
 71
     0
 42
0.3
  3
txt
  4

  0
STYLE
  5
18A
330
3
100
AcDbSymbolTableRecord
100
AcDbTextStyleTableRecord
  2
BIGFONT
 70
    64
 40
0.0
 41
1.0
 50
0.0
 71
     0
 42
0.3
  3
txt
  4
bigfont
  0
ENDTAB
  0
TABLE
  2
VIEW
  5
6
330
0
100
AcDbSymbolTable
 70
     0
  0
ENDTAB
  0
TABLE
  2
UCS
  5
7
330
0
100
AcDbSymbolTable
 70
     0
  0
ENDTAB
  0
TABLE
  2
APPID
  5
9
330
0
100
AcDbSymbolTable
 70
     1
  0
APPID
  5
18B
330
9
100
AcDbSymbolTableRecord
100
AcDbRegAppTableRecord
  2
ACAD
 70
     0
  0
ENDTAB
  0
TABLE
  2
DIMSTYLE
  5
A
330
0
100
AcDbSymbolTable
 70
     8
100
AcDbDimStyleTable
 71
     0
  0
DIMSTYLE
105
18C
330
A
100
AcDbSymbolTableRecord
100
AcDbDimStyleTableRecord
  2
ISO-25
 70
     0
  3

  4

  5

  6

  7

 40
1.0
 41
3.0
 42
1.0
 43
5.0
 44
2.0
 45
0.0
 46
5.0
 47
0.0
 48
0.0
140
3.0
141
2.0
142
0.0
143
25.4
144
1.0
145
1.0
146
1.0
147
0.5
 71
     0
 72
     0
 73
     0
 74
     0
 75
     0
 76
     0
 77
     1
 78
     8
170
     0
171
     0
172
     1
173
     0
174
     0
175
     0
176
     0
177
     0
178
     0
270
     2
271
     3
272
     3
273
     8
274
     4
340
189
275
     0
280
     0
281
     0
282
     0
283
     1
284
     1
285
     0
286
     0
287
     3
288
     0
  0
DIMSTYLE
105
18D
330
A
100
AcDbSymbolTableRecord
100
AcDbDimStyleTableRecord
  2
ISO-25 10
 70
     0
  3

  4

  5

  6

  7

 40
1.0
 41
0.3
 42
0.1
 43
0.5
 44
0.2
 45
0.0
 46
0.5
 47
0.0
 48
0.0
140
0.3
141
0.2
142
0.0
143
25.4
144
1.0
145
1.0
146
1.0
147
0.05
 71
     0
 72
     0
 73
     0
 74
     0
 75
     0
 76
     0
 77
     1
 78
     8
170
     0
171
     0
172
     1
173
     0
174
     0
175
     0
176
     0
177
     0
178
     0
270
     2
271
     3
272
     3
273
     8
274
     4
340
189
275
     0
280
     0
281
     0
282
     0
283
     1
284
     1
285
     0
286
     0
287
     3
288
     0
  0
ENDTAB
  0
TABLE
  2
BLOCK_RECORD
  5
1
330
0
100
AcDbSymbolTable
 70
     2
  0
BLOCK_RECORD
  5
20
330
1
100
AcDbSymbolTableRecord
100
AcDbBlockTableRecord
  2
*MODEL_SPACE
340
178
  0
BLOCK_RECORD
  5
22
330
1
100
AcDbSymbolTableRecord
100
AcDbBlockTableRecord
  2
*PAPER_SPACE
340
0
  0
BLOCK_RECORD
  5
F9
330
1
100
AcDbSymbolTableRecord
100
AcDbBlockTableRecord
  2
MARK-1_1
340
0
102
{BLKREFS
331
F8
331
FB
331
FD
331
131
331
169
331
16D
331
16F
102
}
  0
BLOCK_RECORD
  5
3A
330
1
100
AcDbSymbolTableRecord
100
AcDbBlockTableRecord
  2
*D1
340
0
102
{BLKREFS
331
43
102
}
  0
BLOCK_RECORD
  5
47
330
1
100
AcDbSymbolTableRecord
100
AcDbBlockTableRecord
  2
*D2
340
0
102
{BLKREFS
331
58
102
}
  0
BLOCK_RECORD
  5
59
330
1
100
AcDbSymbolTableRecord
100
AcDbBlockTableRecord
  2
*D3
340
0
102
{BLKREFS
331
6A
102
}
  0
BLOCK_RECORD
  5
6B
330
1
100
AcDbSymbolTableRecord
100
AcDbBlockTableRecord
  2
*D4
340
0
102
{BLKREFS
331
7C
102
}
  0
BLOCK_RECORD
  5
7D
330
1
100
AcDbSymbolTableRecord
100
AcDbBlockTableRecord
  2
*D5
340
0
102
{BLKREFS
331
8C
102
}
  0
BLOCK_RECORD
  5
B6
330
1
100
AcDbSymbolTableRecord
100
AcDbBlockTableRecord
  2
*D6
340
0
102
{BLKREFS
331
C6
102
}
  0
BLOCK_RECORD
  5
C7
330
1
100
AcDbSymbolTableRecord
100
AcDbBlockTableRecord
  2
*D7
340
0
102
{BLKREFS
331
D7
102
}
  0
BLOCK_RECORD
  5
D8
330
1
100
AcDbSymbolTableRecord
100
AcDbBlockTableRecord
  2
*D8
340
0
102
{BLKREFS
331
EA
102
}
  0
BLOCK_RECORD
  5
FE
330
1
100
AcDbSymbolTableRecord
100
AcDbBlockTableRecord
  2
*D9
340
0
102
{BLKREFS
331
10D
102
}
  0
BLOCK_RECORD
  5
11E
330
1
100
AcDbSymbolTableRecord
100
AcDbBlockTableRecord
  2
*D10
340
0
102
{BLKREFS
331
12E
102
}
  0
BLOCK_RECORD
  5
138
330
1
100
AcDbSymbolTableRecord
100
AcDbBlockTableRecord
  2
*D11
340
0
102
{BLKREFS
331
149
102
}
  0
BLOCK_RECORD
  5
157
330
1
100
AcDbSymbolTableRecord
100
AcDbBlockTableRecord
  2
*D12
340
0
102
{BLKREFS
331
167
102
}
  0
BLOCK_RECORD
  5
130
330
1
100
AcDbSymbolTableRecord
100
AcDbBlockTableRecord
  2
LDR1
340
0
102
{BLKREFS
331
132
102
}
  0
ENDTAB
  0
ENDSEC
  0
SECTION
  2
BLOCKS
  0
BLOCK
  5
21
330
20
100
AcDbEntity
  8
0
100
AcDbBlockBegin
  2
*MODEL_SPACE
 70
     0
 10
0.0
 20
0.0
 30
0.0
  3
*MODEL_SPACE
  1

  0
ENDBLK
  5
179
330
20
100
AcDbEntity
  8
0
100
AcDbBlockEnd
  0
BLOCK
  5
23
330
22
100
AcDbEntity
 67
     1
  8
0
100
AcDbBlockBegin
  2
*PAPER_SPACE
 70
     0
 10
0.0
 20
0.0
 30
0.0
  3
*PAPER_SPACE
  1

  0
ENDBLK
  5
17A
330
22
100
AcDbEntity
 67
     1
  8
0
100
AcDbBlockEnd
  0
BLOCK
  5
17B
330
F9
100
AcDbEntity
  8
0
100
AcDbBlockBegin
  2
MARK-1_1
 70
    64
 10
0.0
 20
0.0
  0
LINE
  5
17C
330
F9
100
AcDbEntity
  8
0
  6
CONTINUOUS
 62
     0
100
AcDbLine
 10
-1.0
 20
-0.25
 11
0.0
 21
0.0
  0
LINE
  5
17D
330
F9
100
AcDbEntity
  8
0
  6
CONTINUOUS
 62
     0
100
AcDbLine
 10
0.0
 20
0.0
 11
-1.0
 21
0.25
  0
LINE
  5
17E
330
F9
100
AcDbEntity
  8
0
  6
CONTINUOUS
 62
     0
100
AcDbLine
 10
0.0
 20
0.0
 11
-1.0
 21
0.0
  0
ENDBLK
  5
17F
330
F9
100
AcDbEntity
  8
0
100
AcDbBlockEnd
  0
BLOCK
  5
3B
330
3A
100
AcDbEntity
  8
0
100
AcDbBlockBegin
  2
*D1
 70
    65
 10
0.0
 20
0.0
  0
LINE
  5
3C
330
3A
100
AcDbEntity
  8
0
  6
CONTINUOUS
 62
     1
100
AcDbLine
 10
0.5571393370628357
 20
3.538444042205811
 11
0.7549577355384827
 21
4.585096836090088
  0
LINE
  5
3D
330
3A
100
AcDbEntity
  8
0
  6
CONTINUOUS
 62
     1
100
AcDbLine
 10
0.688004195690155
 20
3.818621635437012
 11
0.5571393370628357
 21
3.538444042205811
  0
LINE
  5
3E
330
3A
100
AcDbEntity
  8
0
  6
CONTINUOUS
 62
     1
100
AcDbLine
 10
0.5571393370628357
 20
3.538444042205811
 11
0.5407600998878479
 21
3.847243070602417
  0
TEXT
  5
3F
330
3A
100
AcDbEntity
  8
0
  6
CONTINUOUS
 62
     1
100
AcDbText
 10
0.6098456382751465
 20
4.094398021697998
 30
0.0
 40
0.3
 41
0.7236842105263159
 50
79.0
 51
0.0
  7
STANDARD
 72
     0
  1
SR3
100
AcDbText
  0
POINT
  5
40
100
AcDbEntity
  8
DEFPOINTS
  6
BYBLOCK
 62
     0
100
AcDbPoint
 10
0.0
 20
0.5906320856414506
  0
POINT
  5
41
100
AcDbEntity
  8
DEFPOINTS
  6
BYBLOCK
 62
     0
100
AcDbPoint
 10
0.5571393463375735
 20
3.538444113020832
  0
ENDBLK
  5
42
330
3A
100
AcDbEntity
  8
0
100
AcDbBlockEnd
  0
BLOCK
  5
48
330
47
100
AcDbEntity
  8
0
100
AcDbBlockBegin
  2
*D2
 70
    65
 10
0.0
 20
0.0
  0
LINE
  5
49
330
47
100
AcDbEntity
  8
0
  6
CONTINUOUS
 62
     1
100
AcDbLine
 10
-3.5
 20
6.0
 11
0.0
 21
6.0
  0
LINE
  5
4A
330
47
100
AcDbEntity
  8
0
  6
CONTINUOUS
 62
     1
100
AcDbLine
 10
-3.200000047683716
 20
5.925000190734863
 11
-3.5
 21
6.0
  0
LINE
  5
4B
330
47
100
AcDbEntity
  8
0
  6
CONTINUOUS
 62
     1
100
AcDbLine
 10
-3.5
 20
6.0
 11
-3.200000047683716
 21
6.075000286102295
  0
LINE
  5
4C
330
47
100
AcDbEntity
  8
0
  6
CONTINUOUS
 62
     1
100
AcDbLine
 10
3.5
 20
6.0
 11
0.0
 21
6.0
  0
LINE
  5
4D
330
47
100
AcDbEntity
  8
0
  6
CONTINUOUS
 62
     1
100
AcDbLine
 10
3.200000047683716
 20
6.074999809265137
 11
3.5
 21
6.0
  0
LINE
  5
4E
330
47
100
AcDbEntity
  8
0
  6
CONTINUOUS
 62
     1
100
AcDbLine
 10
3.5
 20
6.0
 11
3.199999809265137
 21
5.925000190734863
  0
LINE
  5
4F
330
47
100
AcDbEntity
  8
0
  6
CONTINUOUS
 62
     1
100
AcDbLine
 10
-3.5
 20
3.200000286102295
 11
-3.5
 21
6.199999809265137
  0
LINE
  5
50
330
47
100
AcDbEntity
  8
0
  6
CONTINUOUS
 62
     1
100
AcDbLine
 10
3.5
 20
3.200000286102295
 11
3.5
 21
6.199999809265137
  0
TEXT
  5
51
330
47
100
AcDbEntity
  8
0
  6
CONTINUOUS
 62
     1
100
AcDbText
 10
-0.5484375357627869
 20
6.175000190734863
 30
0.0
 40
0.3
 41
0.7236842105263159
 50
0.0
 51
0.0
  7
STANDARD
 72
     0
  1
%%c7
100
AcDbText
  0
TEXT
  5
52
330
47
100
AcDbEntity
  8
0
  6
CONTINUOUS
 62
     1
100
AcDbText
 10
-0.0921875387430191
 20
6.350000381469727
 30
0.0
 40
0.25
 41
0.7236842105263158
 50
0.0
 51
0.0
  7
STANDARD
 72
     0
  1
 0
100
AcDbText
  0
TEXT
  5
53
330
47
100
AcDbEntity
  8
0
  6
CONTINUOUS
 62
     1
100
AcDbText
 10
-0.0921875387430191
 20
6.050000190734863
 30
0.0
 40
0.25
 41
0.7236842105263158
 50
0.0
 51
0.0
  7
STANDARD
 72
     0
  1
-0.1
100
AcDbText
  0
POINT
  5
54
330
47
100
AcDbEntity
  8
DEFPOINTS
  6
BYBLOCK
 62
     0
100
AcDbPoint
 10
-3.5
 20
3.1
  0
POINT
  5
55
100
AcDbEntity
  8
DEFPOINTS
  6
BYBLOCK
 62
     0
100
AcDbPoint
 10
3.5
 20
3.1
  0
POINT
  5
56
100
AcDbEntity
  8
DEFPOINTS
  6
BYBLOCK
 62
     0
100
AcDbPoint
 10
3.5
 20
6.0
  0
ENDBLK
  5
57
330
47
100
AcDbEntity
  8
0
100
AcDbBlockEnd
  0
BLOCK
  5
5A
330
59
100
AcDbEntity
  8
0
100
AcDbBlockBegin
  2
*D3
 70
    65
 10
0.0
 20
0.0
  0
LINE
  5
5B
330
59
100
AcDbEntity
  8
0
  6
CONTINUOUS
 62
     1
100
AcDbLine
 10
-4.5
 20
3.599631786346436
 11
-4.5
 21
4.099631786346436
  0
LINE
  5
5C
330
59
100
AcDbEntity
  8
0
  6
CONTINUOUS
 62
     1
100
AcDbLine
 10
-4.425000190734863
 20
3.89963173866272
 11
-4.5
 21
3.599631786346436
  0
LINE
  5
5D
330
59
100
AcDbEntity
  8
0
  6
CONTINUOUS
 62
     1
100
AcDbLine
 10
-4.5
 20
3.599631786346436
 11
-4.575000286102295
 21
3.89963173866272
  0
LINE
  5
5E
330
59
100
AcDbEntity
  8
0
  6
CONTINUOUS
 62
     1
100
AcDbLine
 10
-4.5
 20
3.599631786346436
 11
-4.5
 21
3.349815845489502
  0
LINE
  5
5F
330
59
100
AcDbEntity
  8
0
  6
CONTINUOUS
 62
     1
100
AcDbLine
 10
-4.5
 20
3.099999904632568
 11
-4.5
 21
3.349815845489502
  0
LINE
  5
60
330
59
100
AcDbEntity
  8
0
  6
CONTINUOUS
 62
     1
100
AcDbLine
 10
-4.5
 20
3.099999904632568
 11
-4.5
 21
1.937499642372131
  0
LINE
  5
61
330
59
100
AcDbEntity
  8
0
  6
CONTINUOUS
 62
     1
100
AcDbLine
 10
-4.575000286102295
 20
2.799999952316284
 11
-4.5
 21
3.099999904632568
  0
LINE
  5
62
330
59
100
AcDbEntity
  8
0
  6
CONTINUOUS
 62
     1
100
AcDbLine
 10
-4.5
 20
3.099999904632568
 11
-4.425000190734863
 21
2.799999713897705
  0
LINE
  5
63
330
59
100
AcDbEntity
  8
0
  6
CONTINUOUS
 62
     1
100
AcDbLine
 10
-0.1000000014901161
 20
3.599631786346436
 11
-4.699999809265137
 21
3.599631786346436
  0
LINE
  5
64
330
59
100
AcDbEntity
  8
0
  6
CONTINUOUS
 62
     1
100
AcDbLine
 10
-0.1000000014901161
 20
3.099999904632568
 11
-4.699999809265137
 21
3.099999904632568
  0
TEXT
  5
65
330
59
100
AcDbEntity
  8
0
  6
CONTINUOUS
 62
     1
100
AcDbText
 10
-4.550000190734863
 20
1.987499833106995
 30
0.0
 40
0.3
 41
0.7236842105263159
 50
90.0
 51
0.0
  7
STANDARD
 72
     0
  1
0.5
100
AcDbText
  0
POINT
  5
66
330
59
100
AcDbEntity
  8
DEFPOINTS
  6
BYBLOCK
 62
     0
100
AcDbPoint
 10
0.0
 20
3.599632085641451
  0
POINT
  5
67
100
AcDbEntity
  8
DEFPOINTS
  6
BYBLOCK
 62
     0
100
AcDbPoint
 10
0.0
 20
3.1
  0
POINT
  5
68
100
AcDbEntity
  8
DEFPOINTS
  6
BYBLOCK
 62
     0
100
AcDbPoint
 10
-4.5
 20
3.1
  0
ENDBLK
  5
69
330
59
100
AcDbEntity
  8
0
100
AcDbBlockEnd
  0
BLOCK
  5
6C
330
6B
100
AcDbEntity
  8
0
100
AcDbBlockBegin
  2
*D4
 70
    65
 10
0.0
 20
0.0
  0
LINE
  5
6D
330
6B
100
AcDbEntity
  8
0
  6
CONTINUOUS
 62
     1
100
AcDbLine
 10
-6.5
 20
3.599632024765015
 11
-6.5
 21
1.099815845489502
  0
LINE
  5
6E
330
6B
100
AcDbEntity
  8
0
  6
CONTINUOUS
 62
     1
100
AcDbLine
 10
-6.575000286102295
 20
3.299632072448731
 11
-6.5
 21
3.599632024765015
  0
LINE
  5
6F
330
6B
100
AcDbEntity
  8
0
  6
CONTINUOUS
 62
     1
100
AcDbLine
 10
-6.5
 20
3.599632024765015
 11
-6.425000190734863
 21
3.299631834030151
  0
LINE
  5
70
330
6B
100
AcDbEntity
  8
0
  6
CONTINUOUS
 62
     1
100
AcDbLine
 10
-6.5
 20
-1.399999976158142
 11
-6.5
 21
1.099815964698792
  0
LINE
  5
71
330
6B
100
AcDbEntity
  8
0
  6
CONTINUOUS
 62
     1
100
AcDbLine
 10
-6.425000190734863
 20
-1.099999904632568
 11
-6.5
 21
-1.399999976158142
  0
LINE
  5
72
330
6B
100
AcDbEntity
  8
0
  6
CONTINUOUS
 62
     1
100
AcDbLine
 10
-6.5
 20
-1.399999976158142
 11
-6.575000286102295
 21
-1.099999904632568
  0
LINE
  5
73
330
6B
100
AcDbEntity
  8
0
  6
CONTINUOUS
 62
     1
100
AcDbLine
 10
-0.1000000014901161
 20
3.599632024765015
 11
-6.699999809265137
 21
3.599632024765015
  0
LINE
  5
74
330
6B
100
AcDbEntity
  8
0
  6
CONTINUOUS
 62
     1
100
AcDbLine
 10
-3.599999904632568
 20
-1.399999976158142
 11
-6.699999809265137
 21
-1.399999976158142
  0
TEXT
  5
75
330
6B
100
AcDbEntity
  8
0
  6
CONTINUOUS
 62
     1
100
AcDbText
 10
-6.675000190734863
 20
0.6545034050941467
 30
0.0
 40
0.3
 41
0.7236842105263159
 50
90.0
 51
0.0
  7
STANDARD
 72
     0
  1
5
100
AcDbText
  0
TEXT
  5
76
330
6B
100
AcDbEntity
  8
0
  6
CONTINUOUS
 62
     1
100
AcDbText
 10
-6.850000381469727
 20
0.9045034050941467
 30
0.0
 40
0.25
 41
0.7236842105263158
 50
90.0
 51
0.0
  7
STANDARD
 72
     0
  1
 0
100
AcDbText
  0
TEXT
  5
77
330
6B
100
AcDbEntity
  8
0
  6
CONTINUOUS
 62
     1
100
AcDbText
 10
-6.550000190734863
 20
0.9045034050941467
 30
0.0
 40
0.25
 41
0.7236842105263158
 50
90.0
 51
0.0
  7
STANDARD
 72
     0
  1
-0.1
100
AcDbText
  0
POINT
  5
78
330
6B
100
AcDbEntity
  8
DEFPOINTS
  6
BYBLOCK
 62
     0
100
AcDbPoint
 10
0.0
 20
3.599632085641451
  0
POINT
  5
79
100
AcDbEntity
  8
DEFPOINTS
  6
BYBLOCK
 62
     0
100
AcDbPoint
 10
-3.5
 20
-1.4
  0
POINT
  5
7A
100
AcDbEntity
  8
DEFPOINTS
  6
BYBLOCK
 62
     0
100
AcDbPoint
 10
-6.5
 20
-1.4
  0
ENDBLK
  5
7B
330
6B
100
AcDbEntity
  8
0
100
AcDbBlockEnd
  0
BLOCK
  5
7E
330
7D
100
AcDbEntity
  8
0
100
AcDbBlockBegin
  2
*D5
 70
    65
 10
0.0
 20
0.0
  0
LINE
  5
7F
330
7D
100
AcDbEntity
  8
0
  6
CONTINUOUS
 62
     1
100
AcDbLine
 10
-1.0
 20
5.0
 11
-8.881784197001252E-016
 21
5.0
  0
LINE
  5
80
330
7D
100
AcDbEntity
  8
0
  6
CONTINUOUS
 62
     1
100
AcDbLine
 10
-0.699999988079071
 20
4.925000190734863
 11
-1.0
 21
5.0
  0
LINE
  5
81
330
7D
100
AcDbEntity
  8
0
  6
CONTINUOUS
 62
     1
100
AcDbLine
 10
-1.0
 20
5.0
 11
-0.699999988079071
 21
5.075000286102295
  0
LINE
  5
82
330
7D
100
AcDbEntity
  8
0
  6
CONTINUOUS
 62
     1
100
AcDbLine
 10
1.0
 20
5.0
 11
-4.440892098500626E-016
 21
5.0
  0
LINE
  5
83
330
7D
100
AcDbEntity
  8
0
  6
CONTINUOUS
 62
     1
100
AcDbLine
 10
0.699999988079071
 20
5.074999809265137
 11
0.9999999403953552
 21
5.0
  0
LINE
  5
84
330
7D
100
AcDbEntity
  8
0
  6
CONTINUOUS
 62
     1
100
AcDbLine
 10
0.9999999403953552
 20
5.0
 11
0.6999998688697815
 21
4.925000190734863
  0
LINE
  5
85
330
7D
100
AcDbEntity
  8
0
  6
CONTINUOUS
 62
     1
100
AcDbLine
 10
-1.0
 20
3.528059482574463
 11
-1.0
 21
5.199999809265137
  0
LINE
  5
86
330
7D
100
AcDbEntity
  8
0
  6
CONTINUOUS
 62
     1
100
AcDbLine
 10
1.0
 20
3.528059482574463
 11
1.0
 21
5.199999809265137
  0
TEXT
  5
87
330
7D
100
AcDbEntity
  8
0
  6
CONTINUOUS
 62
     1
100
AcDbText
 10
-0.1781250089406967
 20
5.050000190734863
 30
0.0
 40
0.3
 41
0.7236842105263159
 50
0.0
 51
0.0
  7
STANDARD
 72
     0
  1
%%c2
100
AcDbText
  0
POINT
  5
88
330
7D
100
AcDbEntity
  8
DEFPOINTS
  6
BYBLOCK
 62
     0
100
AcDbPoint
 10
-1.000000000000001
 20
3.428059210387643
  0
POINT
  5
89
100
AcDbEntity
  8
DEFPOINTS
  6
BYBLOCK
 62
     0
100
AcDbPoint
 10
0.9999999999999998
 20
3.428059210387643
  0
POINT
  5
8A
100
AcDbEntity
  8
DEFPOINTS
  6
BYBLOCK
 62
     0
100
AcDbPoint
 10
0.9999999999999996
 20
5.0
  0
ENDBLK
  5
8B
330
7D
100
AcDbEntity
  8
0
100
AcDbBlockEnd
  0
BLOCK
  5
B7
330
B6
100
AcDbEntity
  8
0
100
AcDbBlockBegin
  2
*D6
 70
    65
 10
0.0
 20
0.0
  0
LINE
  5
B8
330
B6
100
AcDbEntity
  8
0
  6
CONTINUOUS
 62
     1
100
AcDbLine
 10
3.5
 20
5.98534107208252
 11
8.178422927856445
 21
5.98534107208252
  0
LINE
  5
B9
330
B6
100
AcDbEntity
  8
0
  6
CONTINUOUS
 62
     1
100
AcDbLine
 10
3.799999952316284
 20
5.910341262817383
 11
3.5
 21
5.98534107208252
  0
LINE
  5
BA
330
B6
100
AcDbEntity
  8
0
  6
CONTINUOUS
 62
     1
100
AcDbLine
 10
3.5
 20
5.98534107208252
 11
3.799999952316284
 21
6.060341358184815
  0
LINE
  5
BB
330
B6
100
AcDbEntity
  8
0
  6
CONTINUOUS
 62
     1
100
AcDbLine
 10
12.85684585571289
 20
5.98534107208252
 11
8.178422927856445
 21
5.98534107208252
  0
LINE
  5
BC
330
B6
100
AcDbEntity
  8
0
  6
CONTINUOUS
 62
     1
100
AcDbLine
 10
12.55684566497803
 20
6.060340881347656
 11
12.85684585571289
 21
5.98534107208252
  0
LINE
  5
BD
330
B6
100
AcDbEntity
  8
0
  6
CONTINUOUS
 62
     1
100
AcDbLine
 10
12.85684585571289
 20
5.98534107208252
 11
12.55684566497803
 21
5.910341262817383
  0
LINE
  5
BE
330
B6
100
AcDbEntity
  8
0
  6
CONTINUOUS
 62
     1
100
AcDbLine
 10
3.5
 20
2.799999952316284
 11
3.5
 21
6.185340881347656
  0
LINE
  5
BF
330
B6
100
AcDbEntity
  8
0
  6
CONTINUOUS
 62
     1
100
AcDbLine
 10
12.85684585571289
 20
0.1484388411045075
 11
12.85684585571289
 21
6.185340881347656
  0
TEXT
  5
C0
330
B6
100
AcDbEntity
  8
0
  6
CONTINUOUS
 62
     1
100
AcDbText
 10
7.56592321395874
 20
6.035341262817383
 30
0.0
 40
0.3
 41
0.7236842105263159
 50
0.0
 51
0.0
  7
STANDARD
 72
     0
  1
500
100
AcDbText
  0
TEXT
  5
C1
330
B6
100
AcDbEntity
  8
0
  6
CONTINUOUS
 62
     1
100
AcDbText
 10
8.228423118591309
 20
6.035341262817383
 30
0.0
 40
0.3
 41
0.7236842105263159
 50
0.0
 51
0.0
  7
STANDARD
 72
     0
  1
%%p30
100
AcDbText
  0
POINT
  5
C2
330
B6
100
AcDbEntity
  8
DEFPOINTS
  6
BYBLOCK
 62
     0
100
AcDbPoint
 10
3.5
 20
2.7
  0
POINT
  5
C3
100
AcDbEntity
  8
DEFPOINTS
  6
BYBLOCK
 62
     0
100
AcDbPoint
 10
12.85684572200841
 20
0.04843883633278201
  0
POINT
  5
C4
100
AcDbEntity
  8
DEFPOINTS
  6
BYBLOCK
 62
     0
100
AcDbPoint
 10
12.85684572200841
 20
5.985341254079896
  0
ENDBLK
  5
C5
330
B6
100
AcDbEntity
  8
0
100
AcDbBlockEnd
  0
BLOCK
  5
C8
330
C7
100
AcDbEntity
  8
0
100
AcDbBlockBegin
  2
*D7
 70
    65
 10
0.0
 20
0.0
  0
LINE
  5
C9
330
C7
100
AcDbEntity
  8
0
  6
CONTINUOUS
 62
     1
100
AcDbLine
 10
10.0
 20
4.099999904632568
 11
11.42842292785645
 21
4.099999904632568
  0
LINE
  5
CA
330
C7
100
AcDbEntity
  8
0
  6
CONTINUOUS
 62
     1
100
AcDbLine
 10
10.30000019073486
 20
4.025000095367432
 11
10.0
 21
4.099999904632568
  0
LINE
  5
CB
330
C7
100
AcDbEntity
  8
0
  6
CONTINUOUS
 62
     1
100
AcDbLine
 10
10.0
 20
4.099999904632568
 11
10.30000019073486
 21
4.175000190734863
  0
LINE
  5
CC
330
C7
100
AcDbEntity
  8
0
  6
CONTINUOUS
 62
     1
100
AcDbLine
 10
12.85684585571289
 20
4.099999904632568
 11
11.42842292785645
 21
4.099999904632568
  0
LINE
  5
CD
330
C7
100
AcDbEntity
  8
0
  6
CONTINUOUS
 62
     1
100
AcDbLine
 10
12.55684566497803
 20
4.174999713897705
 11
12.85684585571289
 21
4.099999904632568
  0
LINE
  5
CE
330
C7
100
AcDbEntity
  8
0
  6
CONTINUOUS
 62
     1
100
AcDbLine
 10
12.85684585571289
 20
4.099999904632568
 11
12.55684566497803
 21
4.025000095367432
  0
LINE
  5
CF
330
C7
100
AcDbEntity
  8
0
  6
CONTINUOUS
 62
     1
100
AcDbLine
 10
10.0
 20
0.4500000178813934
 11
10.0
 21
4.299999713897705
  0
LINE
  5
D0
330
C7
100
AcDbEntity
  8
0
  6
CONTINUOUS
 62
     1
100
AcDbLine
 10
12.85684585571289
 20
0.1484388411045075
 11
12.85684585571289
 21
4.299999713897705
  0
TEXT
  5
D1
330
C7
100
AcDbEntity
  8
0
  6
CONTINUOUS
 62
     1
100
AcDbText
 10
11.02217292785645
 20
4.150000095367432
 30
0.0
 40
0.3
 41
0.7236842105263159
 50
0.0
 51
0.0
  7
STANDARD
 72
     0
  1
50
100
AcDbText
  0
TEXT
  5
D2
330
C7
100
AcDbEntity
  8
0
  6
CONTINUOUS
 62
     1
100
AcDbText
 10
11.47842311859131
 20
4.150000095367432
 30
0.0
 40
0.3
 41
0.7236842105263159
 50
0.0
 51
0.0
  7
STANDARD
 72
     0
  1
%%p5
100
AcDbText
  0
POINT
  5
D3
330
C7
100
AcDbEntity
  8
DEFPOINTS
  6
BYBLOCK
 62
     0
100
AcDbPoint
 10
10.0
 20
0.35
  0
POINT
  5
D4
100
AcDbEntity
  8
DEFPOINTS
  6
BYBLOCK
 62
     0
100
AcDbPoint
 10
12.85684585571289
 20
0.04843885304584206
  0
POINT
  5
D5
100
AcDbEntity
  8
DEFPOINTS
  6
BYBLOCK
 62
     0
100
AcDbPoint
 10
12.85684585571289
 20
4.1
  0
ENDBLK
  5
D6
330
C7
100
AcDbEntity
  8
0
100
AcDbBlockEnd
  0
BLOCK
  5
D9
330
D8
100
AcDbEntity
  8
0
100
AcDbBlockBegin
  2
*D8
 70
    65
 10
0.0
 20
0.0
  0
LINE
  5
DA
330
D8
100
AcDbEntity
  8
0
  6
CONTINUOUS
 62
     1
100
AcDbLine
 10
12.0
 20
2.599999904632568
 11
11.5
 21
2.599999904632568
  0
LINE
  5
DB
330
D8
100
AcDbEntity
  8
0
  6
CONTINUOUS
 62
     1
100
AcDbLine
 10
11.69999980926514
 20
2.675000190734863
 11
12.0
 21
2.599999904632568
  0
LINE
  5
DC
330
D8
100
AcDbEntity
  8
0
  6
CONTINUOUS
 62
     1
100
AcDbLine
 10
12.0
 20
2.599999904632568
 11
11.69999980926514
 21
2.525000095367432
  0
LINE
  5
DD
330
D8
100
AcDbEntity
  8
0
  6
CONTINUOUS
 62
     1
100
AcDbLine
 10
12.0
 20
2.599999904632568
 11
12.42842292785645
 21
2.599999904632568
  0
LINE
  5
DE
330
D8
100
AcDbEntity
  8
0
  6
CONTINUOUS
 62
     1
100
AcDbLine
 10
12.85684585571289
 20
2.599999904632568
 11
12.42842292785645
 21
2.599999904632568
  0
LINE
  5
DF
330
D8
100
AcDbEntity
  8
0
  6
CONTINUOUS
 62
     1
100
AcDbLine
 10
12.85684585571289
 20
2.599999904632568
 11
14.47559547424316
 21
2.599999904632568
  0
LINE
  5
E0
330
D8
100
AcDbEntity
  8
0
  6
CONTINUOUS
 62
     1
100
AcDbLine
 10
13.15684604644775
 20
2.524999856948853
 11
12.85684585571289
 21
2.599999904632568
  0
LINE
  5
E1
330
D8
100
AcDbEntity
  8
0
  6
CONTINUOUS
 62
     1
100
AcDbLine
 10
12.85684585571289
 20
2.599999904632568
 11
13.15684604644775
 21
2.674999952316284
  0
LINE
  5
E2
330
D8
100
AcDbEntity
  8
0
  6
CONTINUOUS
 62
     1
100
AcDbLine
 10
12.0
 20
0.04133311659097672
 11
12.0
 21
2.799999952316284
  0
LINE
  5
E3
330
D8
100
AcDbEntity
  8
0
  6
CONTINUOUS
 62
     1
100
AcDbLine
 10
12.85684585571289
 20
0.1484388411045075
 11
12.85684585571289
 21
2.799999952316284
  0
TEXT
  5
E4
330
D8
100
AcDbEntity
  8
0
  6
CONTINUOUS
 62
     1
100
AcDbText
 10
13.40684604644775
 20
2.649999856948853
 30
0.0
 40
0.3
 41
0.7236842105263159
 50
0.0
 51
0.0
  7
STANDARD
 72
     0
  1
5
100
AcDbText
  0
TEXT
  5
E5
330
D8
100
AcDbEntity
  8
0
  6
CONTINUOUS
 62
     1
100
AcDbText
 10
13.65684604644775
 20
2.649999856948853
 30
0.0
 40
0.3
 41
0.7236842105263159
 50
0.0
 51
0.0
  7
STANDARD
 72
     0
  1
%%p1.5
100
AcDbText
  0
POINT
  5
E6
330
D8
100
AcDbEntity
  8
DEFPOINTS
  6
BYBLOCK
 62
     0
100
AcDbPoint
 10
12.0
 20
-0.05866687891826816
  0
POINT
  5
E7
100
AcDbEntity
  8
DEFPOINTS
  6
BYBLOCK
 62
     0
100
AcDbPoint
 10
12.85684585571289
 20
0.04843885304584206
  0
POINT
  5
E8
100
AcDbEntity
  8
DEFPOINTS
  6
BYBLOCK
 62
     0
100
AcDbPoint
 10
12.85684585571289
 20
2.6
  0
ENDBLK
  5
E9
330
D8
100
AcDbEntity
  8
0
100
AcDbBlockEnd
  0
BLOCK
  5
FF
330
FE
100
AcDbEntity
  8
0
100
AcDbBlockBegin
  2
*D9
 70
    65
 10
0.0
 20
0.0
  0
LINE
  5
100
330
FE
100
AcDbEntity
  8
0
  6
CONTINUOUS
 62
     1
100
AcDbLine
 10
10.0
 20
-3.400000095367432
 11
11.0
 21
-3.400000095367432
  0
LINE
  5
101
330
FE
100
AcDbEntity
  8
0
  6
CONTINUOUS
 62
     1
100
AcDbLine
 10
10.30000019073486
 20
-3.475000143051148
 11
10.0
 21
-3.400000095367432
  0
LINE
  5
102
330
FE
100
AcDbEntity
  8
0
  6
CONTINUOUS
 62
     1
100
AcDbLine
 10
10.0
 20
-3.400000095367432
 11
10.30000019073486
 21
-3.325000047683716
  0
LINE
  5
103
330
FE
100
AcDbEntity
  8
0
  6
CONTINUOUS
 62
     1
100
AcDbLine
 10
12.0
 20
-3.400000095367432
 11
11.0
 21
-3.400000095367432
  0
LINE
  5
104
330
FE
100
AcDbEntity
  8
0
  6
CONTINUOUS
 62
     1
100
AcDbLine
 10
11.69999980926514
 20
-3.324999809265137
 11
12.0
 21
-3.400000095367432
  0
LINE
  5
105
330
FE
100
AcDbEntity
  8
0
  6
CONTINUOUS
 62
     1
100
AcDbLine
 10
12.0
 20
-3.400000095367432
 11
11.69999980926514
 21
-3.474999904632568
  0
LINE
  5
106
330
FE
100
AcDbEntity
  8
0
  6
CONTINUOUS
 62
     1
100
AcDbLine
 10
10.0
 20
-1.25
 11
10.0
 21
-3.600000143051148
  0
LINE
  5
107
330
FE
100
AcDbEntity
  8
0
  6
CONTINUOUS
 62
     1
100
AcDbLine
 10
12.0
 20
-2.25
 11
12.0
 21
-3.600000143051148
  0
TEXT
  5
108
330
FE
100
AcDbEntity
  8
0
  6
CONTINUOUS
 62
     1
100
AcDbText
 10
10.61562538146973
 20
-3.350000143051148
 30
0.0
 40
0.3
 41
0.7236842105263159
 50
0.0
 51
0.0
  7
STANDARD
 72
     0
  1
(40)
100
AcDbText
  0
POINT
  5
109
330
FE
100
AcDbEntity
  8
DEFPOINTS
  6
BYBLOCK
 62
     0
100
AcDbPoint
 10
10.0
 20
-1.15
  0
POINT
  5
10A
100
AcDbEntity
  8
DEFPOINTS
  6
BYBLOCK
 62
     0
100
AcDbPoint
 10
12.0
 20
-2.15
  0
POINT
  5
10B
100
AcDbEntity
  8
DEFPOINTS
  6
BYBLOCK
 62
     0
100
AcDbPoint
 10
12.0
 20
-3.400000095367432
  0
ENDBLK
  5
10C
330
FE
100
AcDbEntity
  8
0
100
AcDbBlockEnd
  0
BLOCK
  5
11F
330
11E
100
AcDbEntity
  8
0
100
AcDbBlockBegin
  2
*D10
 70
    65
 10
0.0
 20
0.0
  0
LINE
  5
120
330
11E
100
AcDbEntity
  8
0
  6
CONTINUOUS
 62
     1
100
AcDbLine
 10
6.349428653717041
 20
-0.4000000059604645
 11
6.349428653717041
 21
-0.8999999761581421
  0
LINE
  5
121
330
11E
100
AcDbEntity
  8
0
  6
CONTINUOUS
 62
     1
100
AcDbLine
 10
6.274428367614746
 20
-0.6999999284744263
 11
6.349428653717041
 21
-0.4000000059604645
  0
LINE
  5
122
330
11E
100
AcDbEntity
  8
0
  6
CONTINUOUS
 62
     1
100
AcDbLine
 10
6.349428653717041
 20
-0.4000000059604645
 11
6.424428462982178
 21
-0.7000001072883606
  0
LINE
  5
123
330
11E
100
AcDbEntity
  8
0
  6
CONTINUOUS
 62
     1
100
AcDbLine
 10
6.349428653717041
 20
-1.399999976158142
 11
6.349428653717041
 21
-0.8999999761581421
  0
LINE
  5
124
330
11E
100
AcDbEntity
  8
0
  6
CONTINUOUS
 62
     1
100
AcDbLine
 10
6.424428462982178
 20
-1.099999904632568
 11
6.349428653717041
 21
-1.399999976158142
  0
LINE
  5
125
330
11E
100
AcDbEntity
  8
0
  6
CONTINUOUS
 62
     1
100
AcDbLine
 10
6.349428653717041
 20
-1.399999976158142
 11
6.274428367614746
 21
-1.099999904632568
  0
LINE
  5
126
330
11E
100
AcDbEntity
  8
0
  6
CONTINUOUS
 62
     1
100
AcDbLine
 10
6.349428653717041
 20
-1.399999976158142
 11
6.349428653717041
 21
-2.308089017868042
  0
LINE
  5
127
330
11E
100
AcDbEntity
  8
0
  6
CONTINUOUS
 62
     1
100
AcDbLine
 10
3.599999904632568
 20
-0.4000000059604645
 11
6.549428462982178
 21
-0.4000000059604645
  0
LINE
  5
128
330
11E
100
AcDbEntity
  8
0
  6
CONTINUOUS
 62
     1
100
AcDbLine
 10
3.599999904632568
 20
-1.399999976158142
 11
6.549428462982178
 21
-1.399999976158142
  0
TEXT
  5
129
330
11E
100
AcDbEntity
  8
0
  6
CONTINUOUS
 62
     1
100
AcDbText
 10
6.299428462982178
 20
-2.258089065551758
 30
0.0
 40
0.3
 41
0.7236842105263159
 50
90.0
 51
0.0
  7
STANDARD
 72
     0
  1
1
100
AcDbText
  0
POINT
  5
12A
330
11E
100
AcDbEntity
  8
DEFPOINTS
  6
BYBLOCK
 62
     0
100
AcDbPoint
 10
3.5
 20
-0.4
  0
POINT
  5
12B
100
AcDbEntity
  8
DEFPOINTS
  6
BYBLOCK
 62
     0
100
AcDbPoint
 10
3.5
 20
-1.4
  0
POINT
  5
12C
100
AcDbEntity
  8
DEFPOINTS
  6
BYBLOCK
 62
     0
100
AcDbPoint
 10
6.349428513479789
 20
-1.4
  0
ENDBLK
  5
12D
330
11E
100
AcDbEntity
  8
0
100
AcDbBlockEnd
  0
BLOCK
  5
139
330
138
100
AcDbEntity
  8
0
100
AcDbBlockBegin
  2
*D11
 70
    65
 10
0.0
 20
0.0
  0
LINE
  5
13A
330
138
100
AcDbEntity
  8
0
  6
CONTINUOUS
 62
     1
100
AcDbLine
 10
4.329314708709717
 20
3.099999904632568
 11
4.329314708709717
 21
3.599999904632568
  0
LINE
  5
13B
330
138
100
AcDbEntity
  8
0
  6
CONTINUOUS
 62
     1
100
AcDbLine
 10
4.404314517974854
 20
3.399999856948853
 11
4.329314708709717
 21
3.099999904632568
  0
LINE
  5
13C
330
138
100
AcDbEntity
  8
0
  6
CONTINUOUS
 62
     1
100
AcDbLine
 10
4.329314708709717
 20
3.099999904632568
 11
4.254314422607422
 21
3.399999856948853
  0
LINE
  5
13D
330
138
100
AcDbEntity
  8
0
  6
CONTINUOUS
 62
     1
100
AcDbLine
 10
4.329314708709717
 20
3.099999904632568
 11
4.329314708709717
 21
2.849999904632568
  0
LINE
  5
13E
330
138
100
AcDbEntity
  8
0
  6
CONTINUOUS
 62
     1
100
AcDbLine
 10
4.329314708709717
 20
2.599999904632568
 11
4.329314708709717
 21
2.849999904632568
  0
LINE
  5
13F
330
138
100
AcDbEntity
  8
0
  6
CONTINUOUS
 62
     1
100
AcDbLine
 10
4.329314708709717
 20
2.599999904632568
 11
4.329314708709717
 21
0.8749998807907105
  0
LINE
  5
140
330
138
100
AcDbEntity
  8
0
  6
CONTINUOUS
 62
     1
100
AcDbLine
 10
4.254314422607422
 20
2.299999952316284
 11
4.329314708709717
 21
2.599999904632568
  0
LINE
  5
141
330
138
100
AcDbEntity
  8
0
  6
CONTINUOUS
 62
     1
100
AcDbLine
 10
4.329314708709717
 20
2.599999904632568
 11
4.404314517974854
 21
2.299999713897705
  0
LINE
  5
142
330
138
100
AcDbEntity
  8
0
  6
CONTINUOUS
 62
     1
100
AcDbLine
 10
3.599999904632568
 20
3.099999904632568
 11
4.529314517974854
 21
3.099999904632568
  0
LINE
  5
143
330
138
100
AcDbEntity
  8
0
  6
CONTINUOUS
 62
     1
100
AcDbLine
 10
3.599999904632568
 20
2.599999904632568
 11
4.529314517974854
 21
2.599999904632568
  0
TEXT
  5
144
330
138
100
AcDbEntity
  8
0
  6
CONTINUOUS
 62
     1
100
AcDbText
 10
4.186334133148193
 20
1.106335043907166
 30
0.0
 40
0.3
 41
0.6631578947368421
 50
90.0
 51
0.0
  7
BIGFONT
 72
     0
  1
０．５～１
100
AcDbText
  0
POINT
  5
145
330
138
100
AcDbEntity
  8
DEFPOINTS
  6
BYBLOCK
 62
     0
100
AcDbPoint
 10
3.5
 20
3.1
  0
POINT
  5
146
100
AcDbEntity
  8
DEFPOINTS
  6
BYBLOCK
 62
     0
100
AcDbPoint
 10
3.5
 20
2.599999904632568
  0
POINT
  5
147
100
AcDbEntity
  8
DEFPOINTS
  6
BYBLOCK
 62
     0
100
AcDbPoint
 10
4.329314802912781
 20
2.599999904632568
  0
ENDBLK
  5
148
330
138
100
AcDbEntity
  8
0
100
AcDbBlockEnd
  0
BLOCK
  5
158
330
157
100
AcDbEntity
  8
0
100
AcDbBlockBegin
  2
*D12
 70
    65
 10
0.0
 20
0.0
  0
LINE
  5
159
330
157
100
AcDbEntity
  8
0
  6
CONTINUOUS
 62
     1
100
AcDbLine
 10
7.318199634552002
 20
0.6000000238418579
 11
7.318199634552002
 21
-0.12791907787323
  0
LINE
  5
15A
330
157
100
AcDbEntity
  8
0
  6
CONTINUOUS
 62
     1
100
AcDbLine
 10
7.243199348449707
 20
0.3000000715255737
 11
7.318199634552002
 21
0.6000000238418579
  0
LINE
  5
15B
330
157
100
AcDbEntity
  8
0
  6
CONTINUOUS
 62
     1
100
AcDbLine
 10
7.318199634552002
 20
0.6000000238418579
 11
7.393199443817139
 21
0.2999999225139618
  0
LINE
  5
15C
330
157
100
AcDbEntity
  8
0
  6
CONTINUOUS
 62
     1
100
AcDbLine
 10
7.318199634552002
 20
-0.8558382391929627
 11
7.318199634552002
 21
-0.1279191374778748
  0
LINE
  5
15D
330
157
100
AcDbEntity
  8
0
  6
CONTINUOUS
 62
     1
100
AcDbLine
 10
7.393199443817139
 20
-0.5558382272720337
 11
7.318199634552002
 21
-0.8558382391929627
  0
LINE
  5
15E
330
157
100
AcDbEntity
  8
0
  6
CONTINUOUS
 62
     1
100
AcDbLine
 10
7.318199634552002
 20
-0.8558382391929627
 11
7.243199348449707
 21
-0.5558381676673889
  0
LINE
  5
15F
330
157
100
AcDbEntity
  8
0
  6
CONTINUOUS
 62
     1
100
AcDbLine
 10
7.318199634552002
 20
-0.8558382391929627
 11
7.318199634552002
 21
-4.727713108062744
  0
LINE
  5
160
330
157
100
AcDbEntity
  8
0
  6
CONTINUOUS
 62
     1
100
AcDbLine
 10
3.099999904632568
 20
0.6000000238418579
 11
7.518199443817139
 21
0.6000000238418579
  0
LINE
  5
161
330
157
100
AcDbEntity
  8
0
  6
CONTINUOUS
 62
     1
100
AcDbLine
 10
3.099999904632568
 20
-0.8558382391929627
 11
7.518199443817139
 21
-0.8558382391929627
  0
TEXT
  5
162
330
157
100
AcDbEntity
  8
0
  6
CONTINUOUS
 62
     1
100
AcDbText
 10
7.268199443817139
 20
-4.677712917327881
 30
0.0
 40
0.3
 41
0.7236842105263158
 50
90.0
 51
0.0
  7
STANDARD
 72
     0
  1
Silicon coating
100
AcDbText
  0
POINT
  5
163
330
157
100
AcDbEntity
  8
DEFPOINTS
  6
BYBLOCK
 62
     0
100
AcDbPoint
 10
3.0
 20
0.5999999999999996
  0
POINT
  5
164
100
AcDbEntity
  8
DEFPOINTS
  6
BYBLOCK
 62
     0
100
AcDbPoint
 10
3.0
 20
-0.8558382334507849
  0
POINT
  5
165
100
AcDbEntity
  8
DEFPOINTS
  6
BYBLOCK
 62
     0
100
AcDbPoint
 10
7.318199677475109
 20
-0.8558382334507849
  0
ENDBLK
  5
166
330
157
100
AcDbEntity
  8
0
100
AcDbBlockEnd
  0
BLOCK
  5
133
330
130
100
AcDbEntity
  8
0
100
AcDbBlockBegin
  2
LDR1
 70
    64
 10
0.0
 20
0.0
  0
TEXT
  5
134
330
130
100
AcDbEntity
  8
0
  6
CONTINUOUS
 62
     1
100
AcDbText
 10
0.05000019073486328
 20
0.4249999523162842
 40
0.3
 41
0.7236842105263158
 50
0.0
 51
0.0
  7
STANDARD
  1
Tool mark
100
AcDbText
  0
TEXT
  5
135
330
130
100
AcDbEntity
  8
0
  6
CONTINUOUS
 62
     1
100
AcDbText
 10
0.05000019073486328
 20
0.04999995231628418
 40
0.3
 41
0.7236842105263158
 50
0.0
 51
0.0
  7
STANDARD
  1
(LSMS-20K only)
100
AcDbText
  0
LINE
  5
136
330
130
100
AcDbEntity
  8
0
  6
CONTINUOUS
 62
     1
100
AcDbLine
 10
0.0
 20
0.0
 11
3.137499809265137
 21
0.0
  0
ENDBLK
  5
137
330
130
100
AcDbEntity
  8
0
100
AcDbBlockEnd
  0
ENDSEC
  0
SECTION
  2
ENTITIES
  0
LINE
  5
24
330
20
100
AcDbEntity
  8
0
  6
CONTINUOUS
 62
     1
100
AcDbLine
 10
3.5
 20
3.1
 11
3.5
 21
1.1
  0
LINE
  5
25
330
20
100
AcDbEntity
  8
0
  6
CONTINUOUS
 62
     1
100
AcDbLine
 10
-3.5
 20
3.1
 11
-3.5
 21
1.1
  0
LINE
  5
26
330
20
100
AcDbEntity
  8
0
  6
CONTINUOUS
 62
     1
100
AcDbLine
 10
3.5
 20
3.1
 11
-3.5
 21
3.1
  0
LINE
  5
27
330
20
100
AcDbEntity
  8
0
  6
CENTER
 62
     1
100
AcDbLine
 10
0.0
 20
3.994765081101155
 11
0.0
 21
-1.531204341199805
  0
ARC
  5
28
330
20
100
AcDbEntity
  8
0
  6
CONTINUOUS
 62
     1
100
AcDbCircle
 10
0.0
 20
11.6
 40
3.5
100
AcDbArc
 50
90.0
 51
344.5339900465795
  0
LINE
  5
29
330
20
100
AcDbEntity
  8
0
  6
CENTER
 62
     1
100
AcDbLine
 10
0.0
 20
7.1
 11
0.0
 21
16.1
  0
CIRCLE
  5
2A
330
20
100
AcDbEntity
  8
0
  6
DASHED
 62
     1
100
AcDbCircle
 10
0.0
 20
11.6
 40
1.0
  0
LINE
  5
2B
330
20
100
AcDbEntity
  8
0
  6
CENTER
 62
     1
100
AcDbLine
 10
3.0
 20
11.6
 11
-2.5
 21
11.6
  0
LINE
  5
2C
330
20
100
AcDbEntity
  8
0
  6
CONTINUOUS
 62
     1
100
AcDbLine
 10
3.5
 20
-1.4
 11
-3.5
 21
-1.4
  0
LINE
  5
2D
330
20
100
AcDbEntity
  8
0
  6
CONTINUOUS
 62
     1
100
AcDbLine
 10
3.5
 20
-1.4
 11
3.5
 21
-1.0
  0
LINE
  5
2E
330
20
100
AcDbEntity
  8
0
  6
CONTINUOUS
 62
     1
100
AcDbLine
 10
-3.5
 20
-1.4
 11
-3.5
 21
1.6
  0
LINE
  5
2F
330
20
100
AcDbEntity
  8
0
  6
CENTER
 62
     1
100
AcDbLine
 10
13.11737495231629
 20
-0.4
 11
0.0
 21
-0.4
  0
LINE
  5
30
330
20
100
AcDbEntity
  8
0
  6
CONTINUOUS
 62
     1
100
AcDbLine
 10
3.5
 20
3.1
 11
3.5
 21
1.1
  0
LINE
  5
31
330
20
100
AcDbEntity
  8
0
  6
CONTINUOUS
 62
     1
100
AcDbLine
 10
-3.5
 20
3.1
 11
-3.5
 21
1.1
  0
LINE
  5
32
330
20
100
AcDbEntity
  8
0
  6
CENTER
 62
     1
100
AcDbLine
 10
0.0
 20
3.994765081101155
 11
0.0
 21
-1.531204341199805
  0
ARC
  5
33
330
20
100
AcDbEntity
  8
0
  6
CONTINUOUS
 62
     1
100
AcDbCircle
 10
0.0
 20
11.6
 40
3.5
100
AcDbArc
 50
15.46600995342056
 51
90.0
  0
LINE
  5
34
330
20
100
AcDbEntity
  8
0
  6
CENTER
 62
     1
100
AcDbLine
 10
0.0
 20
7.1
 11
0.0
 21
16.1
  0
CIRCLE
  5
35
330
20
100
AcDbEntity
  8
0
  6
CONTINUOUS
 62
     1
100
AcDbCircle
 10
0.0
 20
11.6
 40
1.0
  0
LINE
  5
36
330
20
100
AcDbEntity
  8
0
  6
CONTINUOUS
 62
     1
100
AcDbLine
 10
3.5
 20
-1.4
 11
-3.5
 21
-1.4
  0
LINE
  5
37
330
20
100
AcDbEntity
  8
0
  6
CONTINUOUS
 62
     1
100
AcDbLine
 10
3.5
 20
1.0
 11
3.5
 21
1.6
  0
LINE
  5
38
330
20
100
AcDbEntity
  8
0
  6
CONTINUOUS
 62
     1
100
AcDbLine
 10
-3.5
 20
-1.4
 11
-3.5
 21
1.6
  0
ARC
  5
39
330
20
100
AcDbEntity
  8
0
  6
CONTINUOUS
 62
     1
100
AcDbCircle
 10
0.0
 20
0.599632085641451
 40
3.0
100
AcDbArc
 50
70.52877936550932
 51
109.4712206344907
  0
DIMENSION
  5
43
330
20
100
AcDbEntity
  8
0
  6
CONTINUOUS
 62
     1
100
AcDbDimension
  2
*D1
 10
0.0
 20
0.5906320856414506
 11
0.6098456382751465
 21
4.094398021697998
 70
    36
 42
3.0
  3
ISO-25 10
100
AcDbRadialDimension
 15
0.5571393463375735
 25
3.538444113020832
1001
ACAD
1000
DSTYLE
1002
{
1070
    41
1040
0.3
1070
   140
1040
0.3
1002
}
  0
LINE
  5
44
330
20
100
AcDbEntity
  8
0
  6
CONTINUOUS
 62
     1
100
AcDbLine
 10
10.0
 20
0.15
 11
3.5
 21
0.1499999999999999
  0
LINE
  5
45
330
20
100
AcDbEntity
  8
0
  6
CONTINUOUS
 62
     1
100
AcDbLine
 10
10.0
 20
-0.95
 11
3.5
 21
-0.95
  0
LINE
  5
46
330
20
100
AcDbEntity
  8
0
  6
CONTINUOUS
 62
     1
100
AcDbLine
 10
-1.000000000000001
 20
3.428059210387643
 11
1.0
 21
3.428059210387643
  0
DIMENSION
  5
58
330
20
100
AcDbEntity
  8
0
  6
CONTINUOUS
 62
     1
100
AcDbDimension
  2
*D2
 10
3.5
 20
6.0
 11
-0.5484375357627869
 21
6.175000190734863
 70
    32
 42
7.0
  3
ISO-25 10
100
AcDbAlignedDimension
 13
-3.5
 23
3.1
 14
3.5
 24
3.1
 50
0.0
100
AcDbRotatedDimension
1001
ACAD
1000
DSTYLE
1002
{
1070
    41
1040
0.3
1070
    48
1040
0.1
1070
    71
1070
     1
1070
   140
1040
0.3
1070
   146
1040
0.8333333333333334
1070
   272
1070
     1
1002
}
  0
DIMENSION
  5
6A
330
20
100
AcDbEntity
  8
0
  6
CONTINUOUS
 62
     1
100
AcDbDimension
  2
*D3
 10
-4.5
 20
3.1
 11
-4.550000190734863
 21
1.987499833106995
 70
    32
 42
0.4996320856414513
  3
ISO-25 10
100
AcDbAlignedDimension
 13
0.0
 23
3.599632085641451
 14
0.0
 24
3.1
 50
270.0
100
AcDbRotatedDimension
1001
ACAD
1000
DSTYLE
1002
{
1070
    41
1040
0.3
1070
   140
1040
0.3
1002
}
  0
DIMENSION
  5
7C
330
20
100
AcDbEntity
  8
0
  6
CONTINUOUS
 62
     1
100
AcDbDimension
  2
*D4
 10
-6.5
 20
-1.4
 11
-6.675000190734863
 21
0.6545034050941467
 70
    32
 42
4.999632085641451
  3
ISO-25 10
100
AcDbAlignedDimension
 13
0.0
 23
3.599632085641451
 14
-3.5
 24
-1.4
 50
270.0
100
AcDbRotatedDimension
1001
ACAD
1000
DSTYLE
1002
{
1070
    41
1040
0.3
1070
    48
1040
0.1
1070
    71
1070
     1
1070
   140
1040
0.3
1070
   146
1040
0.8333333333333334
1070
   272
1070
     1
1002
}
  0
DIMENSION
  5
8C
330
20
100
AcDbEntity
  8
0
  6
CONTINUOUS
 62
     1
100
AcDbDimension
  2
*D5
 10
0.9999999999999996
 20
5.0
 11
-0.1781250089406967
 21
5.050000190734863
 70
    32
 42
2.0
  3
ISO-25 10
100
AcDbAlignedDimension
 13
-1.000000000000001
 23
3.428059210387643
 14
0.9999999999999998
 24
3.428059210387643
 50
0.0
100
AcDbRotatedDimension
1001
ACAD
1000
DSTYLE
1002
{
1070
    41
1040
0.3
1070
   140
1040
0.3
1002
}
  0
LINE
  5
8D
330
20
100
AcDbEntity
  8
0
  6
CONTINUOUS
 62
     1
100
AcDbLine
 10
3.5
 20
-1.0
 11
3.5
 21
1.0
  0
CIRCLE
  5
8E
330
20
100
AcDbEntity
  8
0
  6
CONTINUOUS
 62
     1
100
AcDbCircle
 10
0.0
 20
11.6
 40
3.5
  0
LINE
  5
8F
330
20
100
AcDbEntity
  8
0
  6
CONTINUOUS
 62
     1
100
AcDbLine
 10
10.0
 20
0.15
 11
10.0
 21
-0.95
  0
LINE
  5
90
330
20
100
AcDbEntity
  8
0
  6
CONTINUOUS
 62
     1
100
AcDbLine
 10
10.0
 20
12.075
 11
11.87266879685592
 21
12.54316719921398
  0
LINE
  5
91
330
20
100
AcDbEntity
  8
0
  6
CONTINUOUS
 62
     1
100
AcDbLine
 10
10.0
 20
11.075
 11
11.87266879685593
 21
10.60683280078602
  0
LINE
  5
92
330
20
100
AcDbEntity
  8
0
  6
CONTINUOUS
 62
     1
100
AcDbLine
 10
10.0
 20
11.8173058983989
 11
11.93330270311501
 21
12.30063157417765
  0
LINE
  5
93
330
20
100
AcDbEntity
  8
0
  6
CONTINUOUS
 62
     1
100
AcDbLine
 10
10.0
 20
11.3326941016011
 11
11.93330270311501
 21
10.84936842582235
  0
LINE
  5
94
330
20
100
AcDbEntity
  8
0
  6
CONTINUOUS
 62
     1
100
AcDbLine
 10
11.98449565817635
 20
12.06536785567094
 11
10.0
 21
11.8173058983989
  0
LINE
  5
95
330
20
100
AcDbEntity
  8
0
  6
CONTINUOUS
 62
     1
100
AcDbLine
 10
10.0
 20
11.575
 11
12.01527212003747
 21
11.81915616078197
  0
LINE
  5
96
330
20
100
AcDbEntity
  8
0
  6
CONTINUOUS
 62
     1
100
AcDbLine
 10
11.984288101795
 20
11.06933033014509
 11
10.0
 21
11.325
  0
LINE
  5
97
330
20
100
AcDbEntity
  8
0
  6
CONTINUOUS
 62
     1
100
AcDbLine
 10
12.01597383186699
 20
11.31524771727285
 11
10.0
 21
11.575
  0
LINE
  5
98
330
20
100
AcDbEntity
  8
0
  6
CONTINUOUS
 62
     1
100
AcDbLine
 10
11.90298574998547
 20
12.42189938669582
 11
12.70431266512729
 21
12.62223111548127
  0
LINE
  5
99
330
20
100
AcDbEntity
  8
0
  6
CONTINUOUS
 62
     1
100
AcDbLine
 10
12.85684572200841
 20
12.04843883633278
 11
12.0
 21
11.94133312108173
  0
LINE
  5
9A
330
20
100
AcDbEntity
  8
0
  6
CONTINUOUS
 62
     1
100
AcDbLine
 10
12.85684572200841
 20
11.08087052752625
 11
12.0
 21
11.1912725717981
  0
LINE
  5
9B
330
20
100
AcDbEntity
  8
0
  6
CONTINUOUS
 62
     1
100
AcDbLine
 10
11.90298574998547
 20
10.72810061330419
 11
12.70431266512729
 21
10.52776888451873
  0
LINE
  5
9C
330
20
100
AcDbEntity
  8
0
  6
CONTINUOUS
 62
     1
100
AcDbLine
 10
10.0
 20
11.075
 11
10.47487704554398
 21
10.44578791465422
  0
LINE
  5
9D
330
20
100
AcDbEntity
  8
0
  6
CONTINUOUS
 62
     1
100
AcDbLine
 10
12.01527212003747
 20
11.81915616078197
 11
11.98449565817635
 21
12.06536785567094
  0
LINE
  5
9E
330
20
100
AcDbEntity
  8
0
  6
CONTINUOUS
 62
     1
100
AcDbLine
 10
11.984288101795
 20
11.06933033014509
 11
12.01597383186699
 21
11.31524771727285
  0
LINE
  5
9F
330
20
100
AcDbEntity
  8
0
  6
CONTINUOUS
 62
     1
100
AcDbLine
 10
10.38604826281474
 20
10.97848793429631
 11
10.67442433312729
 21
10.59638964113219
  0
ARC
  5
A0
330
20
100
AcDbEntity
  8
0
  6
CONTINUOUS
 62
     1
100
AcDbCircle
 10
11.87170805862714
 20
11.5
 40
1.5
100
AcDbArc
 50
217.0424747730828
 51
270.0
  0
ARC
  5
A1
330
20
100
AcDbEntity
  8
0
  6
CONTINUOUS
 62
     1
100
AcDbCircle
 10
11.87170805862714
 20
11.5
 40
1.750000000000001
100
AcDbArc
 50
217.0424747730828
 51
270.0
  0
LINE
  5
A2
330
20
100
AcDbEntity
  8
0
  6
CONTINUOUS
 62
     1
100
AcDbLine
 10
11.93330270311501
 20
12.30063157417765
 11
11.87266879685592
 21
12.54316719921398
  0
LINE
  5
A3
330
20
100
AcDbEntity
  8
0
  6
CONTINUOUS
 62
     1
100
AcDbLine
 10
11.87266879685593
 20
10.60683280078602
 11
11.93330270311501
 21
10.84936842582235
  0
ARC
  5
A4
330
20
100
AcDbEntity
  8
0
  6
CONTINUOUS
 62
     1
100
AcDbCircle
 10
11.87170805862714
 20
9.875
 40
0.125
100
AcDbArc
 50
0.0
 51
90.0
  0
ARC
  5
A5
330
20
100
AcDbEntity
  8
0
  6
CONTINUOUS
 62
     1
100
AcDbCircle
 10
11.87170805862714
 20
9.875
 40
0.125
100
AcDbArc
 50
270.0
 51
0.0
  0
LINE
  5
A6
330
20
100
AcDbEntity
  8
0
  6
CONTINUOUS
 62
     1
100
AcDbLine
 10
11.98449565817635
 20
0.06536785567094083
 11
10.0
 21
-0.182694101601102
  0
LINE
  5
A7
330
20
100
AcDbEntity
  8
0
  6
CONTINUOUS
 62
     1
100
AcDbLine
 10
10.0
 20
-0.4249999999999986
 11
12.01527212003747
 21
-0.1808438392180328
  0
LINE
  5
A8
330
20
100
AcDbEntity
  8
0
  6
CONTINUOUS
 62
     1
100
AcDbLine
 10
12.01527212003747
 20
-0.1808438392180328
 11
11.98449565817635
 21
0.06536785567094083
  0
LINE
  5
A9
330
20
100
AcDbEntity
  8
0
  6
CONTINUOUS
 62
     1
100
AcDbLine
 10
12.01597383186699
 20
-0.6847522827271458
 11
10.0
 21
-0.4249999999999986
  0
LINE
  5
AA
330
20
100
AcDbEntity
  8
0
  6
CONTINUOUS
 62
     1
100
AcDbLine
 10
11.984288101795
 20
-0.930669669854909
 11
10.0
 21
-0.6749999999999986
  0
LINE
  5
AB
330
20
100
AcDbEntity
  8
0
  6
CONTINUOUS
 62
     1
100
AcDbLine
 10
11.984288101795
 20
-0.930669669854909
 11
12.01597383186699
 21
-0.6847522827271458
  0
LINE
  5
AC
330
20
100
AcDbEntity
  8
0
  6
CONTINUOUS
 62
     1
100
AcDbLine
 10
11.93330270311501
 20
0.300631574177649
 11
11.87266879685592
 21
0.5431671992139812
  0
LINE
  5
AD
330
20
100
AcDbEntity
  8
0
  6
CONTINUOUS
 62
     1
100
AcDbLine
 10
11.87266879685593
 20
-1.39316719921398
 11
11.93330270311501
 21
-1.150631574177648
  0
LINE
  5
AE
330
20
100
AcDbEntity
  8
0
  6
CONTINUOUS
 62
     1
100
AcDbLine
 10
11.90298574998547
 20
0.4218993866958168
 11
12.70431266512729
 21
0.6222311154812722
  0
LINE
  5
AF
330
20
100
AcDbEntity
  8
0
  6
CONTINUOUS
 62
     1
100
AcDbLine
 10
11.90298574998547
 20
-1.271899386695814
 11
12.70431266512729
 21
-1.472231115481269
  0
LINE
  5
B0
330
20
100
AcDbEntity
  8
0
  6
CONTINUOUS
 62
     1
100
AcDbLine
 10
10.0
 20
-0.6673058983988952
 11
11.93330270311501
 21
-1.150631574177648
  0
LINE
  5
B1
330
20
100
AcDbEntity
  8
0
  6
CONTINUOUS
 62
     1
100
AcDbLine
 10
10.0
 20
-0.9249999999999986
 11
11.87266879685593
 21
-1.39316719921398
  0
LINE
  5
B2
330
20
100
AcDbEntity
  8
0
  6
CONTINUOUS
 62
     1
100
AcDbLine
 10
10.0
 20
-0.182694101601102
 11
11.93330270311501
 21
0.3006315741776507
  0
LINE
  5
B3
330
20
100
AcDbEntity
  8
0
  6
CONTINUOUS
 62
     1
100
AcDbLine
 10
10.0
 20
0.0750000000000014
 11
11.87266879685592
 21
0.5431671992139829
  0
LINE
  5
B4
330
20
100
AcDbEntity
  8
0
  6
CONTINUOUS
 62
     1
100
AcDbLine
 10
12.85684572200841
 20
0.04843883633278201
 11
12.0
 21
-0.05866687891826816
  0
LINE
  5
B5
330
20
100
AcDbEntity
  8
0
  6
CONTINUOUS
 62
     1
100
AcDbLine
 10
12.85684572200841
 20
-0.9191294724737503
 11
12.0
 21
-0.808727428201896
  0
DIMENSION
  5
C6
330
20
100
AcDbEntity
  8
0
  6
CONTINUOUS
 62
     1
100
AcDbDimension
  2
*D6
 10
12.85684572200841
 20
5.985341254079896
 11
7.56592321395874
 21
6.035341262817383
 70
    32
 42
9.35684572200841
  3
ISO-25 10
100
AcDbAlignedDimension
 13
3.5
 23
2.7
 14
12.85684572200841
 24
0.04843883633278201
 50
0.0
100
AcDbRotatedDimension
1001
ACAD
1000
DSTYLE
1002
{
1070
    41
1040
0.3
1070
    47
1040
30.0
1070
    48
1040
30.0
1070
    71
1070
     1
1070
   140
1040
0.3
1070
   272
1070
     0
1002
}
  0
DIMENSION
  5
D7
330
20
100
AcDbEntity
  8
0
  6
CONTINUOUS
 62
     1
100
AcDbDimension
  2
*D7
 10
12.85684585571289
 20
4.1
 11
11.02217292785645
 21
4.150000095367432
 70
    32
 42
2.856845855712891
  3
ISO-25 10
100
AcDbAlignedDimension
 13
10.0
 23
0.35
 14
12.85684585571289
 24
0.04843885304584206
 50
0.0
100
AcDbRotatedDimension
1001
ACAD
1000
DSTYLE
1002
{
1070
    41
1040
0.3
1070
    47
1040
5.0
1070
    48
1040
5.0
1070
    71
1070
     1
1070
   140
1040
0.3
1070
   272
1070
     0
1002
}
  0
DIMENSION
  5
EA
330
20
100
AcDbEntity
  8
0
  6
CONTINUOUS
 62
     1
100
AcDbDimension
  2
*D8
 10
12.85684585571289
 20
2.6
 11
13.40684604644775
 21
2.649999856948853
 70
    32
 42
0.8568458557128906
  3
ISO-25 10
100
AcDbAlignedDimension
 13
12.0
 23
-0.05866687891826816
 14
12.85684585571289
 24
0.04843885304584206
 50
0.0
100
AcDbRotatedDimension
1001
ACAD
1000
DSTYLE
1002
{
1070
    41
1040
0.3
1070
    47
1040
1.5
1070
    48
1040
1.5
1070
    71
1070
     1
1070
   140
1040
0.3
1070
   272
1070
     1
1002
}
  0
LINE
  5
EB
330
20
100
AcDbEntity
  8
0
  6
CONTINUOUS
 62
     1
100
AcDbLine
 10
11.5
 20
9.789931837863868
 11
11.5
 21
10.04678524671966
  0
HATCH
  5
EC
330
20
100
AcDbEntity
  8
0
  6
CONTINUOUS
 62
     1
100
AcDbHatch
 10
0.0
 20
0.0
 30
0.0
210
0.0
220
0.0
230
1.0
  2
_U
 70
     0
 71
     0
 91
        1
 92
        5
 93
       16
 72
     1
 10
10.0
 20
11.075
 11
10.65172970073957
 21
10.24534753565541
 72
     1
 10
10.65172970073957
 20
10.24534753565541
 11
11.23113352473178
 21
9.871453326881678
 72
     1
 10
11.23113352473178
 20
9.871453326881678
 11
11.5
 21
9.789931837863868
 72
     1
 10
11.5
 20
9.789931837863868
 11
11.87170805862714
 21
9.75
 72
     1
 10
11.87170805862714
 20
9.75
 11
11.99670805862714
 21
9.875
 72
     1
 10
11.99670805862714
 20
9.875
 11
11.87170805862714
 21
10.0
 72
     1
 10
11.87170805862714
 20
10.0
 11
11.66745147494726
 21
10.01397198948895
 72
     1
 10
11.66745147494726
 20
10.01397198948895
 11
11.5
 21
10.04678524671966
 72
     1
 10
11.5
 20
10.04678524671966
 11
11.25973811321774
 21
10.13051367808378
 72
     1
 10
11.25973811321774
 20
10.13051367808378
 11
11.05885180854617
 21
10.23933957121503
 72
     1
 10
11.05885180854617
 20
10.23933957121503
 11
10.81739280938943
 21
10.4330326362888
 72
     1
 10
10.81739280938943
 20
10.4330326362888
 11
10.67442433312729
 21
10.59638964113219
 72
     1
 10
10.67442433312729
 20
10.59638964113219
 11
10.51121556945679
 21
10.8126412529956
 72
     1
 10
10.51121556945679
 20
10.8126412529956
 11
10.38604826281474
 21
10.97848793429632
 72
     1
 10
10.38604826281474
 20
10.97848793429632
 11
10.0
 21
11.075
 72
     1
 10
10.0
 20
11.075
 11
10.0
 21
11.075
 97
        0
 75
     0
 76
     0
 52
45.0
 41
0.1
 77
     0
 78
     2
 53
45.0
 43
0.0
 44
0.0
 45
-0.07071067811865475
 46
0.07071067811865477
 79
     0
 53
135.0
 43
0.0
 44
0.0
 45
0.07071067811865475
 46
0.07071067811865475
 79
     0
 47
0.322189
 98
        1
 10
0.0
 20
0.0
  0
HATCH
  5
ED
330
20
100
AcDbEntity
  8
0
  6
CONTINUOUS
 62
     1
100
AcDbHatch
 10
0.0
 20
0.0
 30
0.0
210
0.0
220
0.0
230
1.0
  2
_U
 70
     0
 71
     0
 91
        1
 92
        5
 93
       12
 72
     1
 10
11.5
 20
10.04678524671966
 11
11.5
 21
9.789931837863868
 72
     1
 10
11.5
 20
9.789931837863868
 11
11.87170805862714
 21
9.75
 72
     1
 10
11.87170805862714
 20
9.75
 11
11.9497068302706
 21
9.777320976550181
 72
     1
 10
11.9497068302706
 20
9.777320976550181
 11
11.99670805862714
 21
9.875
 72
     1
 10
11.99670805862714
 20
9.875
 11
11.98330575639577
 21
9.931311223150809
 72
     1
 10
11.98330575639577
 20
9.931311223150809
 11
11.94453268714983
 21
9.976595144965357
 72
     1
 10
11.94453268714983
 20
9.976595144965357
 11
11.87170805862714
 21
10.0
 72
     1
 10
11.87170805862714
 20
10.0
 11
11.81356022130136
 21
10.00397755096695
 72
     1
 10
11.81356022130136
 20
10.00397755096695
 11
11.74588249424756
 21
9.995410576343783
 72
     1
 10
11.74588249424756
 20
9.995410576343783
 11
11.6589222502812
 21
10.01016276058808
 72
     1
 10
11.6589222502812
 20
10.01016276058808
 11
11.5
 21
10.04678524671966
 72
     1
 10
11.5
 20
10.04678524671966
 11
11.5
 21
10.04678524671966
 97
        0
 75
     0
 76
     0
 52
0.0
 41
0.05
 77
     0
 78
     1
 53
0.0
 43
0.0
 44
0.0
 45
3.061515884555943E-018
 46
0.05
 79
     0
 47
0.322189
 98
        1
 10
0.0
 20
0.0
  0
ARC
  5
EE
330
20
100
AcDbEntity
  8
0
  6
CONTINUOUS
 62
     1
100
AcDbCircle
 10
11.87170805862714
 20
-0.4999999999999997
 40
1.5
100
AcDbArc
 50
217.0424747730828
 51
270.0
  0
ARC
  5
EF
330
20
100
AcDbEntity
  8
0
  6
CONTINUOUS
 62
     1
100
AcDbCircle
 10
11.87170805862714
 20
-0.4999999999999997
 40
1.750000000000001
100
AcDbArc
 50
217.0424747730828
 51
270.0
  0
ARC
  5
F0
330
20
100
AcDbEntity
  8
0
  6
CONTINUOUS
 62
     1
100
AcDbCircle
 10
11.87170805862714
 20
-2.125
 40
0.125
100
AcDbArc
 50
0.0
 51
90.0
  0
ARC
  5
F1
330
20
100
AcDbEntity
  8
0
  6
CONTINUOUS
 62
     1
100
AcDbCircle
 10
11.87170805862714
 20
-2.125
 40
0.125
100
AcDbArc
 50
270.0
 51
0.0
  0
HATCH
  5
F2
330
20
100
AcDbEntity
  8
0
  6
CONTINUOUS
 62
     1
100
AcDbHatch
 10
0.0
 20
0.0
 30
0.0
210
0.0
220
0.0
230
1.0
  2
_U
 70
     0
 71
     0
 91
        1
 92
        5
 93
       16
 72
     1
 10
10.0
 20
-0.9249999999999986
 11
10.65172970073957
 21
-1.754652464344587
 72
     1
 10
10.65172970073957
 20
-1.754652464344587
 11
11.23113352473178
 21
-2.128546673118322
 72
     1
 10
11.23113352473178
 20
-2.128546673118322
 11
11.5
 21
-2.210068162136131
 72
     1
 10
11.5
 20
-2.210068162136131
 11
11.87170805862714
 21
-2.25
 72
     1
 10
11.87170805862714
 20
-2.25
 11
11.99670805862714
 21
-2.125
 72
     1
 10
11.99670805862714
 20
-2.125
 11
11.87170805862714
 21
-2.0
 72
     1
 10
11.87170805862714
 20
-2.0
 11
11.66745147494726
 21
-1.986028010511049
 72
     1
 10
11.66745147494726
 20
-1.986028010511049
 11
11.5
 21
-1.953214753280342
 72
     1
 10
11.5
 20
-1.953214753280342
 11
11.25973811321774
 21
-1.869486321916223
 72
     1
 10
11.25973811321774
 20
-1.869486321916223
 11
11.05885180854617
 21
-1.760660428784971
 72
     1
 10
11.05885180854617
 20
-1.760660428784971
 11
10.81739280938943
 21
-1.566967363711205
 72
     1
 10
10.81739280938943
 20
-1.566967363711205
 11
10.67442433312729
 21
-1.403610358867808
 72
     1
 10
10.67442433312729
 20
-1.403610358867808
 11
10.51121556945679
 21
-1.187358747004399
 72
     1
 10
10.51121556945679
 20
-1.187358747004399
 11
10.38604826281474
 21
-1.021512065703683
 72
     1
 10
10.38604826281474
 20
-1.021512065703683
 11
10.0
 21
-0.9249999999999986
 72
     1
 10
10.0
 20
-0.9249999999999986
 11
10.0
 21
-0.9249999999999986
 97
        0
 75
     0
 76
     0
 52
45.0
 41
0.1
 77
     0
 78
     2
 53
45.0
 43
0.0
 44
-12.0
 45
-0.07071067811865475
 46
0.07071067811865461
 79
     0
 53
135.0
 43
0.0
 44
-12.0
 45
0.07071067811865475
 46
0.07071067811865461
 79
     0
 47
0.322189
 98
        1
 10
0.0
 20
0.0
  0
LINE
  5
F3
330
20
100
AcDbEntity
  8
0
  6
CONTINUOUS
 62
     1
100
AcDbLine
 10
11.5
 20
-2.210068162136131
 11
11.5
 21
-1.953214753280342
  0
HATCH
  5
F4
330
20
100
AcDbEntity
  8
0
  6
CONTINUOUS
 62
     1
100
AcDbHatch
 10
0.0
 20
0.0
 30
0.0
210
0.0
220
0.0
230
1.0
  2
_U
 70
     0
 71
     0
 91
        1
 92
        5
 93
       12
 72
     1
 10
11.5
 20
-1.953214753280342
 11
11.5
 21
-2.210068162136131
 72
     1
 10
11.5
 20
-2.210068162136131
 11
11.87170805862714
 21
-2.25
 72
     1
 10
11.87170805862714
 20
-2.25
 11
11.9497068302706
 21
-2.222679023449819
 72
     1
 10
11.9497068302706
 20
-2.222679023449819
 11
11.99670805862714
 21
-2.125
 72
     1
 10
11.99670805862714
 20
-2.125
 11
11.98330575639577
 21
-2.068688776849191
 72
     1
 10
11.98330575639577
 20
-2.068688776849191
 11
11.94453268714983
 21
-2.023404855034643
 72
     1
 10
11.94453268714983
 20
-2.023404855034643
 11
11.87170805862714
 21
-2.0
 72
     1
 10
11.87170805862714
 20
-2.0
 11
11.81356022130136
 21
-1.996022449033054
 72
     1
 10
11.81356022130136
 20
-1.996022449033054
 11
11.74588249424756
 21
-2.004589423656217
 72
     1
 10
11.74588249424756
 20
-2.004589423656217
 11
11.6589222502812
 21
-1.989837239411922
 72
     1
 10
11.6589222502812
 20
-1.989837239411922
 11
11.5
 21
-1.953214753280342
 72
     1
 10
11.5
 20
-1.953214753280342
 11
11.5
 21
-1.953214753280342
 97
        0
 75
     0
 76
     0
 52
0.0
 41
0.05
 77
     0
 78
     1
 53
0.0
 43
0.0
 44
-12.0
 45
3.061515884555943E-018
 46
0.05000000000000071
 79
     0
 47
0.322189
 98
        1
 10
0.0
 20
0.0
  0
LINE
  5
F5
330
20
100
AcDbEntity
  8
0
  6
CONTINUOUS
 62
     1
100
AcDbLine
 10
10.38604826281474
 20
-1.021512065703685
 11
10.67442433312729
 21
-1.403610358867807
  0
LINE
  5
F6
330
20
100
AcDbEntity
  8
0
  6
CONTINUOUS
 62
     1
100
AcDbLine
 10
10.0
 20
-0.9249999999999986
 11
10.47487704554398
 21
-1.554212085345776
  0
MTEXT
  5
F7
330
20
100
AcDbEntity
  8
0
  6
CONTINUOUS
 62
     1
100
AcDbMText
 10
10.55956592559815
 20
13.14766120910645
 40
0.3
 41
0.0
 71
     9
 72
     1
  1
{\W0.723684;Soldering}
 11
1.0
 21
0.0
  7
STANDARD
  0
LEADER
  5
F8
330
20
100
AcDbEntity
  8
0
  6
CONTINUOUS
 62
     1
100
AcDbLeader
  3
ISO-25 10
 73
     3
 76
     3
 10
12.25322914123535
 20
12.64817333221436
 10
10.6095666885376
 20
13.09766101837158
 10
8.709567070007324
 20
13.09766101837158
 71
     1
1001
ACAD
1000
DSTYLE
1002
{
1070
   147
1040
0.625
1070
    77
1070
     0
1070
   341
1005
F9
1002
}
  0
MTEXT
  5
FA
330
20
100
AcDbEntity
  8
0
  6
CONTINUOUS
 62
     1
100
AcDbMText
 10
6.635822296142578
 20
14.06492805480957
 40
0.3
 41
0.0
 71
     7
 72
     1
  1
{\W0.723684;4 Core Shielded Cable}
 11
1.0
 21
0.0
  7
STANDARD
  0
LEADER
  5
FB
330
20
100
AcDbEntity
  8
0
  6
CONTINUOUS
 62
     1
100
AcDbLeader
  3
ISO-25 10
 73
     3
 76
     3
 10
4.75
 20
12.14974689483643
 10
6.585822105407715
 20
14.01492786407471
 10
10.96082210540772
 20
14.01492786407471
 71
     1
1001
ACAD
1000
DSTYLE
1002
{
1070
   147
1040
0.625
1070
    77
1070
     0
1070
   341
1005
F9
1002
}
  0
MTEXT
  5
FC
330
20
100
AcDbEntity
  8
0
  6
CONTINUOUS
 62
     1
100
AcDbMText
 10
8.700000190734864
 20
8.800000190734863
 40
0.3
 41
0.0
 71
     9
 72
     1
  1
{\W0.723684;Shield}
 11
1.0
 21
0.0
  7
STANDARD
  0
LEADER
  5
FD
330
20
100
AcDbEntity
  8
0
  6
CONTINUOUS
 62
     1
100
AcDbLeader
  3
ISO-25 10
 73
     3
 76
     3
 10
10.65172958374023
 20
10.24534797668457
 10
8.75
 20
8.75
 10
7.46875
 20
8.75
 71
     1
1001
ACAD
1000
DSTYLE
1002
{
1070
   147
1040
0.625
1070
    77
1070
     0
1070
   341
1005
F9
1002
}
  0
DIMENSION
  5
10D
330
20
100
AcDbEntity
  8
0
  6
CONTINUOUS
 62
     1
100
AcDbDimension
  2
*D9
 10
12.0
 20
-3.400000095367432
 11
10.61562538146973
 21
-3.350000143051148
 70
    32
 42
2.0
  3
ISO-25 10
100
AcDbAlignedDimension
 13
10.0
 23
-1.15
 14
12.0
 24
-2.15
 50
0.0
100
AcDbRotatedDimension
1001
ACAD
1000
DSTYLE
1002
{
1070
    41
1040
0.3
1070
   140
1040
0.3
1002
}
  0
CIRCLE
  5
10E
330
20
100
AcDbEntity
  8
0
  6
CONTINUOUS
 62
     1
100
AcDbCircle
 10
0.0
 20
11.6
 40
2.0
  0
LINE
  5
10F
330
20
100
AcDbEntity
  8
0
  6
CONTINUOUS
 62
     1
100
AcDbLine
 10
-1.488936352868297
 20
1.98
 11
-1.5
 21
1.98
  0
LINE
  5
110
330
20
100
AcDbEntity
  8
0
  6
DASHED
 62
     1
100
AcDbLine
 10
2.0
 20
2.48
 11
2.0
 21
3.1
  0
LINE
  5
111
330
20
100
AcDbEntity
  8
0
  6
DASHED
 62
     1
100
AcDbLine
 10
-2.0
 20
2.48
 11
-2.0
 21
3.1
  0
ARC
  5
112
330
20
100
AcDbEntity
  8
0
  6
DASHED
 62
     1
100
AcDbCircle
 10
-1.5
 20
2.48
 40
0.5
100
AcDbArc
 50
180.0
 51
270.0
  0
LINE
  5
113
330
20
100
AcDbEntity
  8
0
  6
DASHED
 62
     1
100
AcDbLine
 10
1.488936352868297
 20
1.98
 11
1.5
 21
1.98
  0
ARC
  5
114
330
20
100
AcDbEntity
  8
0
  6
DASHED
 62
     1
100
AcDbCircle
 10
1.488936352868297
 20
2.48
 40
0.5
100
AcDbArc
 50
180.0
 51
270.0
  0
ARC
  5
115
330
20
100
AcDbEntity
  8
0
  6
DASHED
 62
     1
100
AcDbCircle
 10
1.5
 20
2.48
 40
0.5
100
AcDbArc
 50
270.0
 51
0.0
  0
LINE
  5
116
330
20
100
AcDbEntity
  8
0
  6
DASHED
 62
     1
100
AcDbLine
 10
1.000000000000001
 20
2.375399603997647
 11
1.000000000000001
 21
3.1
  0
LINE
  5
117
330
20
100
AcDbEntity
  8
0
  6
CONTINUOUS
 62
     1
100
AcDbLine
 10
-1.000000000000001
 20
3.1
 11
-1.000000000000001
 21
3.428059210387643
  0
LINE
  5
118
330
20
100
AcDbEntity
  8
0
  6
CONTINUOUS
 62
     1
100
AcDbLine
 10
1.0
 20
3.1
 11
1.0
 21
3.428059210387643
  0
LINE
  5
119
330
20
100
AcDbEntity
  8
0
  6
DASHED
 62
     1
100
AcDbLine
 10
-1.000000000000001
 20
2.375399603997647
 11
-1.000000000000001
 21
3.1
  0
LINE
  5
11A
330
20
100
AcDbEntity
  8
0
  6
DASHED
 62
     1
100
AcDbLine
 10
2.000000000000001
 20
2.48
 11
2.000000000000001
 21
3.1
  0
LINE
  5
11B
330
20
100
AcDbEntity
  8
0
  6
CONTINUOUS
 62
     1
100
AcDbLine
 10
10.0
 20
12.15
 11
3.456515586540874
 21
12.15
  0
LINE
  5
11C
330
20
100
AcDbEntity
  8
0
  6
CONTINUOUS
 62
     1
100
AcDbLine
 10
10.0
 20
11.05
 11
3.456515586540874
 21
11.05
  0
LINE
  5
11D
330
20
100
AcDbEntity
  8
0
  6
CONTINUOUS
 62
     1
100
AcDbLine
 10
10.0
 20
12.15
 11
10.0
 21
11.05
  0
DIMENSION
  5
12E
330
20
100
AcDbEntity
  8
0
  6
CONTINUOUS
 62
     1
100
AcDbDimension
  2
*D10
 10
6.349428513479789
 20
-1.4
 11
6.299428462982178
 21
-2.258089065551758
 70
    32
 42
1.0
  3
ISO-25 10
100
AcDbAlignedDimension
 13
3.5
 23
-0.4
 14
3.5
 24
-1.4
 50
270.0
100
AcDbRotatedDimension
1001
ACAD
1000
DSTYLE
1002
{
1070
    41
1040
0.3
1070
   140
1040
0.3
1002
}
  0
LINE
  5
12F
330
20
100
AcDbEntity
  8
0
  6
PHANTOM
 62
     1
100
AcDbLine
 10
3.5
 20
2.6
 11
-3.5
 21
2.6
  0
INSERT
  5
132
102
{ACAD_REACTORS
330
131
102
}
330
20
100
AcDbEntity
  8
0
  6
CONTINUOUS
 62
     1
100
AcDbBlockReference
  2
LDR1
 10
5.335268020629883
 20
3.01917028427124
 41
1.0
 42
1.0
 50
0.0
  0
LEADER
  5
131
330
20
100
AcDbEntity
  8
0
  6
CONTINUOUS
 62
     1
100
AcDbLeader
  3
ISO-25 10
 73
     2
 76
     2
 10
3.5
 20
2.599999904632568
 10
5.335268020629883
 20
3.01917028427124
 71
     1
340
132
1001
ACAD
1000
DSTYLE
1002
{
1070
   147
1040
0.625
1070
    77
1070
     0
1070
   341
1005
F9
1002
}
  0
DIMENSION
  5
149
330
20
100
AcDbEntity
  8
0
  6
CONTINUOUS
 62
     1
100
AcDbDimension
  2
*D11
 10
4.329314802912781
 20
2.599999904632568
 11
4.186334133148193
 21
1.106335043907166
 70
    32
 42
0.5000000953674313
  3
ISO-25 10
100
AcDbAlignedDimension
 13
3.5
 23
3.1
 14
3.5
 24
2.599999904632568
 50
270.0
100
AcDbRotatedDimension
1001
ACAD
1000
DSTYLE
1002
{
1070
    41
1040
0.3
1070
   140
1040
0.3
1002
}
  0
ARC
  5
14A
330
20
100
AcDbEntity
  8
0
  6
DASHED
 62
     1
100
AcDbCircle
 10
-1.488936352868297
 20
2.48
 40
0.5000000000000003
100
AcDbArc
 50
270.0
 51
347.9244792639018
  0
LINE
  5
14B
330
20
100
AcDbEntity
  8
0
  6
CONTINUOUS
 62
     1
100
AcDbLine
 10
-2.0
 20
3.1
 11
-3.5
 21
3.1
  0
LINE
  5
14C
330
20
100
AcDbEntity
  8
0
  6
CONTINUOUS
 62
     1
100
AcDbLine
 10
3.5
 20
3.1
 11
-1.000000000000001
 21
3.1
  0
LINE
  5
14D
330
20
100
AcDbEntity
  8
0
  6
CONTINUOUS
 62
     1
100
AcDbLine
 10
-1.000000000000001
 20
3.1
 11
-2.0
 21
3.1
  0
HATCH
  5
14E
330
20
100
AcDbEntity
  8
0
  6
DASHED
 62
     1
100
AcDbHatch
 10
0.0
 20
0.0
 30
0.0
210
0.0
220
0.0
230
1.0
  2
_U
 70
     0
 71
     0
 91
        1
 92
        5
 93
        5
 72
     2
 10
-1.5
 20
2.48
 40
0.5
 50
180.0
 51
270.0
 73
     1
 72
     1
 10
-2.0
 20
2.48
 11
-2.0
 21
3.1
 72
     1
 10
-1.000000000000001
 20
3.1
 11
-2.0
 21
3.1
 72
     1
 10
-1.000000000000001
 20
2.375399603997647
 11
-1.000000000000001
 21
3.1
 72
     2
 10
-1.488936352868297
 20
2.48
 40
0.5000000000000003
 50
-347.9244792639018
 51
-270.0
 73
     0
 97
        0
 75
     0
 76
     0
 52
45.0
 41
0.2
 77
     0
 78
     2
 53
45.0
 43
0.0
 44
0.0
 45
-0.1414213562373095
 46
0.1414213562373095
 79
     0
 53
135.0
 43
0.0
 44
0.0
 45
0.1414213562373095
 46
0.1414213562373095
 79
     0
 47
0.322189
 98
        1
 10
0.0
 20
0.0
  0
HATCH
  5
14F
330
20
100
AcDbEntity
  8
0
  6
DASHED
 62
     1
100
AcDbHatch
 10
0.0
 20
0.0
 30
0.0
210
0.0
220
0.0
230
1.0
  2
_U
 70
     0
 71
     0
 91
        1
 92
        5
 93
        5
 72
     2
 10
1.5
 20
2.48
 40
0.5
 50
0.0
 51
90.0
 73
     0
 72
     1
 10
2.0
 20
2.48
 11
2.0
 21
3.1
 72
     1
 10
1.000000000000001
 20
3.1
 11
2.0
 21
3.1
 72
     1
 10
1.000000000000001
 20
2.375399603997647
 11
1.000000000000001
 21
3.1
 72
     2
 10
1.488936352868297
 20
2.48
 40
0.5000000000000003
 50
192.0755207360982
 51
270.0
 73
     1
 97
        0
 75
     0
 76
     0
 52
45.0
 41
0.2
 77
     0
 78
     2
 53
45.0
 43
0.0
 44
0.0
 45
-0.1414213562373095
 46
0.1414213562373095
 79
     0
 53
135.0
 43
0.0
 44
0.0
 45
0.1414213562373095
 46
0.1414213562373095
 79
     0
 47
0.322189
 98
        1
 10
0.0
 20
0.0
  0
LINE
  5
150
330
20
100
AcDbEntity
  8
0
  6
DASHED
 62
     1
100
AcDbLine
 10
3.0
 20
0.5999999999999996
 11
-3.0
 21
0.5999999999999996
  0
LINE
  5
151
330
20
100
AcDbEntity
  8
0
  6
DASHED
 62
     1
100
AcDbLine
 10
-3.0
 20
-1.4
 11
-3.0
 21
0.5999999999999996
  0
LINE
  5
152
330
20
100
AcDbEntity
  8
0
  6
DASHED
 62
     1
100
AcDbLine
 10
3.0
 20
-1.4
 11
3.0
 21
0.5999999999999996
  0
SPLINE
  5
153
330
20
100
AcDbEntity
  8
0
  6
DASHED
 62
     1
100
AcDbSpline
210
0.0
220
0.0
230
1.0
 70
     8
 71
     3
 72
    14
 73
    10
 74
     0
 42
1.000000000000000E-007
 43
1.000000000000000E-007
 40
0.0
 40
0.0
 40
0.0
 40
0.0
 40
0.5320342079829887
 40
1.617430461776803
 40
3.021101418173334
 40
3.689029086511807
 40
4.843332089825696
 40
5.455080706574432
 40
6.063918908952949
 40
6.063918908952949
 40
6.063918908952949
 40
6.063918908952949
 10
-3.000000000000132
 20
-0.9550655069504986
 30
0.0
 10
-2.911155114223059
 20
-0.977471437812664
 30
0.0
 10
-2.555775571116156
 20
-1.067095161261353
 30
0.0
 10
-1.523205336037348
 20
-0.7729106737048914
 30
0.0
 10
0.2812585089220996
 20
-1.165725430395969
 30
0.0
 10
0.3981713003491439
 20
-0.8087583363672537
 30
0.0
 10
2.017796491166045
 20
-1.004890461657121
 30
0.0
 10
2.323188775315021
 20
-1.037382777115939
 30
0.0
 10
2.864637755063016
 20
-0.8921471421838155
 30
0.0
 10
3.0
 20
-0.8558382334507849
 30
0.0
  0
LWPOLYLINE
  5
154
330
20
100
AcDbEntity
  8
0
  6
DASHED
 62
     1
100
AcDbPolyline
 90
       39
 70
     0
 43
0.0
 10
-3.0
 20
0.5999999999999996
 10
3.0
 20
0.5999999999999996
 10
3.0
 20
-0.8558382334507849
 10
2.978707924644406
 20
-0.8615471324258153
 10
2.955550284946644
 20
-0.8677421401293092
 10
2.9306919502386
 20
-0.8743647316587347
 10
2.904297789852162
 20
-0.8813563821115601
 10
2.876532673119216
 20
-0.8886585665852533
 10
2.847561469371649
 20
-0.8962127601772825
 10
2.817549047941348
 20
-0.9039604379851158
 10
2.786660278160201
 20
-0.9118430751062212
 10
2.755060029360093
 20
-0.9198021466380669
 10
2.722913170872912
 20
-0.9277791276781211
 10
2.690384572030545
 20
-0.9357154933238516
 10
2.657639102164878
 20
-0.9435527186727268
 10
2.624841630607798
 20
-0.9512322788222146
 10
2.592157026691194
 20
-0.9586956488697833
 10
2.55975015974695
 20
-0.9658843039129008
 10
2.527785899106954
 20
-0.9727397190490353
 10
2.496429114103093
 20
-0.9792033693756549
 10
2.465844674067254
 20
-0.9852167299902277
 10
2.436197448331324
 20
-0.9907212759902218
 10
2.40765230622719
 20
-0.995658482473105
 10
2.169348221942496
 20
-1.013063876178037
 10
1.798757673388054
 20
-0.9776171600186121
 10
1.779723470369748
 20
-0.9753555999286512
 10
1.07772156768504
 20
-0.9048204744482955
 10
0.648623366914119
 20
-0.9009415395870173
 10
0.3631260678627931
 20
-0.9727582496918972
 10
0.1858972707046617
 20
-1.027120022176817
 10
3.230749001659206E-014
 20
-1.040761788609337
 10
-0.5934314880238387
 20
-0.9746607452169317
 10
-1.394556401057242
 20
-0.887410547746148
 10
-1.775694568318126
 20
-0.8975584252066162
 10
-2.216750088643847
 20
-0.9578931185970641
 10
-2.472525417713082
 20
-0.995658482473104
 10
-2.740895108731186
 20
-0.9996734241134675
 10
-3.000000000000132
 20
-0.9550655069504986
 10
-3.0
 20
0.5999999999999996
  0
HATCH
  5
155
330
20
100
AcDbEntity
  8
0
  6
DASHED
 62
     1
100
AcDbHatch
 10
0.0
 20
0.0
 30
0.0
210
0.0
220
0.0
230
1.0
  2
_U
 70
     0
 71
     0
 91
        1
 92
        5
 93
       10
 72
     1
 10
-3.0
 20
0.5999999999999996
 11
3.0
 21
0.5999999999999996
 72
     1
 10
3.0
 20
0.5999999999999996
 11
3.0
 21
-0.8558382334507849
 72
     4
 94
        3
 73
     0
 74
     0
 95
        8
 96
        4
 40
0.0
 40
0.0
 40
0.0
 40
0.0
 40
0.6088382023785164
 40
0.6088382023785164
 40
0.6088382023785164
 40
0.6088382023785164
 10
3.0
 20
-0.8558382334507849
 10
2.864637755063016
 20
-0.8921471421838155
 10
2.593913265189019
 20
-0.9647649596498773
 10
2.40765230622719
 20
-0.995658482473105
 72
     4
 94
        3
 73
     0
 74
     0
 95
        8
 96
        4
 40
0.0
 40
0.0
 40
0.0
 40
0.0
 40
0.6117486167487373
 40
0.6117486167487373
 40
0.6117486167487373
 40
0.6117486167487373
 10
2.40765230622719
 20
-0.995658482473105
 10
2.221391347265361
 20
-1.026552005296333
 10
2.119593919215701
 20
-1.015721233476727
 10
1.798757673388054
 20
-0.9776171600186121
 72
     4
 94
        3
 73
     0
 74
     0
 95
        8
 96
        4
 40
0.0
 40
0.0
 40
0.0
 40
0.0
 40
1.15430300331389
 40
1.15430300331389
 40
1.15430300331389
 40
1.15430300331389
 10
1.798757673388054
 20
-0.9776171600186121
 10
1.477921427560408
 20
-0.9395130865604979
 10
0.9380463639547759
 20
-0.8741357114638758
 10
0.6486233669141192
 20
-0.9009415395870173
 72
     4
 94
        3
 73
     0
 74
     0
 95
        8
 96
        4
 40
0.0
 40
0.0
 40
0.0
 40
0.0
 40
0.6679276683384723
 40
0.6679276683384723
 40
0.6679276683384723
 40
0.6679276683384723
 10
0.6486233669141192
 20
-0.9009415395870173
 10
0.3592003698734624
 20
-0.9277473677101589
 10
0.3202294393977809
 20
-1.046736399053064
 10
3.227973444097643E-014
 20
-1.040761788609337
 72
     4
 94
        3
 73
     0
 74
     0
 95
        8
 96
        4
 40
0.0
 40
0.0
 40
0.0
 40
0.0
 40
1.403670956396532
 40
1.403670956396532
 40
1.403670956396532
 40
1.403670956396532
 10
3.227973444097643E-014
 20
-1.040761788609337
 10
-0.3202294393977164
 20
-1.03478717816561
 10
-0.9217173877175322
 20
-0.9038489259352507
 10
-1.394556401057242
 20
-0.887410547746148
 72
     4
 94
        3
 73
     0
 74
     0
 95
        8
 96
        4
 40
0.0
 40
0.0
 40
0.0
 40
0.0
 40
1.085396253793815
 40
1.085396253793815
 40
1.085396253793815
 40
1.085396253793815
 10
-1.394556401057242
 20
-0.887410547746148
 10
-1.867395414396951
 20
-0.8709721695570454
 10
-2.211585492756554
 20
-0.9690336654091993
 10
-2.472525417713081
 20
-0.995658482473104
 72
     4
 94
        3
 73
     0
 74
     0
 95
        8
 96
        4
 40
0.0
 40
0.0
 40
0.0
 40
0.0
 40
0.5320342079829886
 40
0.5320342079829886
 40
0.5320342079829886
 40
0.5320342079829886
 10
-2.472525417713081
 20
-0.995658482473104
 10
-2.733465342669608
 20
-1.022283299537009
 10
-2.911155114223059
 20
-0.977471437812664
 10
-3.000000000000132
 20
-0.9550655069504986
 72
     1
 10
-3.000000000000132
 20
-0.9550655069504986
 11
-3.0
 21
0.5999999999999996
 97
        0
 75
     0
 76
     0
 52
45.0
 41
0.2
 77
     0
 78
     2
 53
45.0
 43
0.0
 44
0.0
 45
-0.1414213562373095
 46
0.1414213562373095
 79
     0
 53
135.0
 43
0.0
 44
0.0
 45
0.1414213562373095
 46
0.1414213562373095
 79
     0
 47
0.322189
 98
        1
 10
0.0
 20
0.0
  0
HATCH
  5
156
330
20
100
AcDbEntity
  8
0
  6
CONTINUOUS
 62
     1
100
AcDbHatch
 10
0.0
 20
0.0
 30
0.0
210
0.0
220
0.0
230
1.0
  2
_U
 70
     0
 71
     0
 91
        1
 92
        5
 93
        6
 72
     2
 10
0.0
 20
11.6
 40
1.0
 50
90.0
 51
270.0
 73
     1
 72
     2
 10
0.0
 20
11.6
 40
1.0
 50
270.0
 51
450.0
 73
     1
 72
     1
 10
0.0
 20
12.6
 11
2.0
 21
11.6
 72
     2
 10
0.0
 20
11.6
 40
2.0
 50
0.0
 51
180.0
 73
     1
 72
     2
 10
0.0
 20
11.6
 40
2.0
 50
180.0
 51
360.0
 73
     1
 72
     1
 10
0.0
 20
12.6
 11
2.0
 21
11.6
 97
        0
 75
     0
 76
     0
 52
45.0
 41
0.2
 77
     0
 78
     2
 53
45.0
 43
0.0
 44
0.0
 45
-0.1414213562373095
 46
0.1414213562373095
 79
     0
 53
135.0
 43
0.0
 44
0.0
 45
0.1414213562373095
 46
0.1414213562373095
 79
     0
 47
0.322189
 98
        1
 10
0.0
 20
0.0
  0
DIMENSION
  5
167
330
20
100
AcDbEntity
  8
0
  6
CONTINUOUS
 62
     1
100
AcDbDimension
  2
*D12
 10
7.318199677475109
 20
-0.8558382334507849
 11
7.268199443817139
 21
-4.677712917327881
 70
    32
 42
1.455838233450784
  3
ISO-25 10
100
AcDbAlignedDimension
 13
3.0
 23
0.5999999999999996
 14
3.0
 24
-0.8558382334507849
 50
270.0
100
AcDbRotatedDimension
1001
ACAD
1000
DSTYLE
1002
{
1070
    41
1040
0.3
1070
   140
1040
0.3
1002
}
  0
MTEXT
  5
168
330
20
100
AcDbEntity
  8
0
  6
CONTINUOUS
 62
     1
100
AcDbMText
 10
3.052365303039551
 20
15.81385040283203
 40
0.3
 41
0.0
 71
     7
 72
     1
  1
{\W0.723684;Silicon coating}
 11
1.0
 21
0.0
  7
STANDARD
  0
LEADER
  5
169
330
20
100
AcDbEntity
  8
0
  6
CONTINUOUS
 62
     1
100
AcDbLeader
  3
ISO-25 10
 73
     3
 76
     3
 10
0.6414958834648132
 20
12.96076583862305
 10
3.002365350723267
 20
15.76385021209717
 10
6.139865875244141
 20
15.76385021209717
 71
     1
1001
ACAD
1000
DSTYLE
1002
{
1070
   147
1040
0.625
1070
    77
1070
     0
1070
   341
1005
F9
1002
}
  0
TEXT
  5
16A
330
20
100
AcDbEntity
  8
0
  6
CONTINUOUS
 62
     1
100
AcDbText
 10
3.986747741699219
 20
4.572800636291504
 40
0.3
 41
0.7236842105263159
 50
0.0
 51
0.0
  7
STANDARD
  1
The height is less than 
100
AcDbText
  0
TEXT
  5
16B
330
20
100
AcDbEntity
  8
0
  6
CONTINUOUS
 62
     1
100
AcDbText
 10
3.986747741699219
 20
4.197800636291504
 40
0.3
 41
0.7236842105263159
 50
0.0
 51
0.0
  7
STANDARD
  1
the depth of counterbore
100
AcDbText
  0
MTEXT
  5
16C
330
20
100
AcDbEntity
  8
0
  6
CONTINUOUS
 62
     1
100
AcDbMText
 10
3.933616876602173
 20
5.154682636260986
 40
0.3
 41
0.0
 71
     7
 72
     1
  1
{\W1;シリコン高さはこの面を超えないこと}
 11
1.0
 21
0.0
  7
BIGFONT
  0
LEADER
  5
16D
330
20
100
AcDbEntity
  8
0
  6
CONTINUOUS
 62
     1
100
AcDbLeader
  3
ISO-25 10
 73
     3
 76
     3
 10
2.607774019241333
 20
3.141847133636475
 10
3.883616924285889
 20
5.104682445526123
 10
9.983617782592773
 20
5.104682445526123
 71
     1
1001
ACAD
1000
DSTYLE
1002
{
1070
   147
1040
0.625
1070
    77
1070
     0
1070
   341
1005
F9
1002
}
  0
MTEXT
  5
16E
330
20
100
AcDbEntity
  8
0
  6
CONTINUOUS
 62
     1
100
AcDbMText
 10
-0.9121330976486206
 20
-2.193681716918945
 40
0.3
 41
0.0
 71
     7
 72
     1
  1
{\W1;シリコン高さはこの面を超えないこと}
 11
1.0
 21
0.0
  7
BIGFONT
  0
LEADER
  5
16F
330
20
100
AcDbEntity
  8
0
  6
CONTINUOUS
 62
     1
100
AcDbLeader
  3
ISO-25 10
 73
     3
 76
     3
 10
-1.559190988540649
 20
-1.470815896987915
 10
-0.9621330499649048
 20
-2.243681907653809
 10
5.137866973876953
 20
-2.243681907653809
 71
     1
1001
ACAD
1000
DSTYLE
1002
{
1070
   147
1040
0.625
1070
    77
1070
     0
1070
   341
1005
F9
1002
}
  0
TEXT
  5
170
330
20
100
AcDbEntity
  8
0
  6
CONTINUOUS
 62
     1
100
AcDbText
 10
-0.8507941961288452
 20
-2.677422285079956
 40
0.3
 41
0.7236842105263159
 50
0.0
 51
0.0
  7
STANDARD
  1
The height is less than 
100
AcDbText
  0
TEXT
  5
171
330
20
100
AcDbEntity
  8
0
  6
CONTINUOUS
 62
     1
100
AcDbText
 10
-0.8507941961288452
 20
-3.052422285079956
 40
0.3
 41
0.7236842105263159
 50
0.0
 51
0.0
  7
STANDARD
  1
the depth of counterbore
100
AcDbText
  0
ENDSEC
  0
SECTION
  2
OBJECTS
  0
DICTIONARY
  5
C
100
AcDbDictionary
281
     1
  3
ACAD_GROUP
350
D
  3
ACAD_MLINESTYLE
350
E
  3
ACDBVARIABLEDICTIONARY
350
172
  3
ACAD_PLOTSTYLENAME
350
173
  3
ACAD_LAYOUT
350
174
  3
ACAD_PLOTSETTINGS
350
175
  0
DICTIONARY
  5
D
102
{ACAD_REACTORS
330
C
102
}
330
C
100
AcDbDictionary
281
     1
  0
DICTIONARY
  5
E
102
{ACAD_REACTORS
330
C
102
}
330
C
100
AcDbDictionary
281
     1
  3
STANDARD
350
13
  0
DICTIONARY
  5
172
102
{ACAD_REACTORS
330
C
102
}
330
C
100
AcDbDictionary
281
     1
  3
SORTENTS
350
176
  0
ACDBDICTIONARYWDFLT
  5
173
102
{ACAD_REACTORS
330
C
102
}
330
C
100
AcDbDictionary
281
     1
  3
Normal
350
177
100
AcDbDictionaryWithDefault
340
177
  0
DICTIONARY
  5
174
102
{ACAD_REACTORS
330
C
102
}
330
C
100
AcDbDictionary
281
     1
  3
Model
350
178
  0
DICTIONARY
  5
175
102
{ACAD_REACTORS
330
C
102
}
330
C
100
AcDbDictionary
281
     1
  0
MLINESTYLE
  5
13
102
{ACAD_REACTORS
330
E
102
}
330
E
100
AcDbMlineStyle
  2
STANDARD
 70
     0
  3

 62
   256
 51
90.0
 52
90.0
 71
     2
 49
0.5
 62
   256
  6
BYLAYER
 49
-0.5
 62
   256
  6
BYLAYER
  0
DICTIONARYVAR
  5
176
102
{ACAD_REACTORS
330
172
102
}
330
172
100
DictionaryVariables
280
     0
  1
96
  0
ACDBPLACEHOLDER
  5
177
102
{ACAD_REACTORS
330
173
102
}
330
173
  0
LAYOUT
  5
178
102
{ACAD_REACTORS
330
174
102
}
330
174
100
AcDbPlotSettings
  1

  2

  4

  6

 40
0.0
 41
0.0
 42
0.0
 43
0.0
 44
0.0
 45
0.0
 46
0.0
 47
0.0
 48
0.0
 49
0.0
140
0.0
141
0.0
142
1.0
143
1.0
 70
  1712
 72
     0
 73
     0
 74
     0
  7

 75
     0
147
1.0
148
0.0
149
0.0
100
AcDbLayout
  1
Model
 70
     1
 71
     0
 10
0.0
 20
0.0
 11
297.0
 21
210.0
 12
0.0
 22
0.0
 32
0.0
 14
0.0
 24
0.0
 34
0.0
 15
0.0
 25
0.0
 35
0.0
146
0.0
 13
0.0
 23
0.0
 33
0.0
 16
1.0
 26
0.0
 36
0.0
 17
0.0
 27
1.0
 37
0.0
 76
     0
330
20
  0
ENDSEC
  0
EOF
